<?xml version="1.0" standalone="no"?>
<!DOCTYPE svg PUBLIC "-//W3C//DTD SVG 1.1//EN" "http://www.w3.org/Graphics/SVG/1.1/DTD/svg11.dtd" >
<svg xmlns="http://www.w3.org/2000/svg">
<metadata>Generated by IcoMoon</metadata>
<defs>
<font id="Welldone" horiz-adv-x="1024">
<font-face units-per-em="1024" ascent="960" descent="-64" />
<missing-glyph horiz-adv-x="1024" />
<glyph unicode="&#x20;" horiz-adv-x="512" d="" />
<glyph unicode="&#xe600;" glyph-name="add" d="M1024 857.6c0 56.32-46.080 102.4-102.4 102.4h-819.2c-56.32 0-102.4-46.080-102.4-102.4v-614.4c0-56.32 46.080-102.4 102.4-102.4h716.8l204.8-204.8v921.6zM819.2 345.6h-614.4v102.4h614.4v-102.4zM819.2 499.2h-614.4v102.4h614.4v-102.4zM819.2 652.8h-614.4v102.4h614.4v-102.4z" />
<glyph unicode="&#xe601;" glyph-name="arrow-down" d="M511.999 156.146c-18.352 0-36.702 7.007-50.694 20.992l-440.297 440.301c-28.009 28.009-28.009 73.42 0 101.417 27.997 27.997 73.399 27.997 101.41 0l389.58-389.603 389.583 389.589c28.009 27.997 73.406 27.997 101.401 0 28.022-27.997 28.022-73.408 0-101.417l-440.29-440.301c-13.999-13.987-32.349-20.979-50.694-20.979z" />
<glyph unicode="&#xe602;" glyph-name="arrow-right" d="M782.857 397.307l-440.304-440.29c-28.009-28.022-73.42-28.022-101.415 0-27.997 27.997-27.997 73.406 0 101.401l389.601 389.589-389.589 389.576c-27.997 28.009-27.997 73.413 0 101.41 27.997 28.009 73.406 28.009 101.415 0l440.304-440.297c13.999-14.005 20.99-32.342 20.99-50.687 0-18.354-7.005-36.704-21.001-50.703z" />
<glyph unicode="&#xe603;" glyph-name="arrow-left" d="M220.146 448.008c0 18.345 7.005 36.695 20.983 50.687l440.308 440.297c28.009 28.009 73.42 28.009 101.417 0 27.997-27.997 27.997-73.399 0-101.41l-389.603-389.574 389.576-389.589c27.997-27.997 27.997-73.406 0-101.401-27.997-28.022-73.395-28.022-101.404 0l-440.31 440.29c-13.976 13.999-20.967 32.349-20.967 50.701z" />
<glyph unicode="&#xe604;" glyph-name="award" d="M638.522 295.158c19.182 32.057 47.386 48.48 84.786 48.918s56.276 19.488 56.889 56.976c0.526 37.313 16.773 65.516 48.831 84.611 32.145 19.182 39.108 44.977 20.802 77.647-18.218 32.583-18.218 65.166 0 97.837 18.306 32.583 11.387 58.334-20.802 77.516-32.057 19.226-48.349 47.386-48.831 84.873-0.613 37.313-19.488 56.363-56.889 56.801-37.4 0.526-65.604 16.861-84.786 48.918-19.182 32.145-44.977 39.108-77.56 20.802-32.583-18.218-65.254-18.218-97.837 0-32.627 18.262-58.422 11.343-77.604-20.802-19.138-32.101-47.386-48.437-84.742-48.918-37.313-0.438-56.276-19.488-56.801-56.801-0.613-37.488-16.861-65.604-48.918-84.873-32.145-19.182-39.196-44.889-20.802-77.516 18.306-32.671 18.306-65.254 0-97.837-18.394-32.671-11.387-58.509 20.802-77.647 32.057-19.094 48.349-47.298 48.918-84.611 0.526-37.444 19.488-56.539 56.801-56.976 37.4-0.438 65.604-16.861 84.786-48.918 19.182-32.145 44.977-39.108 77.56-20.715 32.583 18.043 65.254 18.043 97.837 0 32.583-18.35 58.422-11.43 77.56 20.715zM512.131 407.578c-113.077 0-204.695 91.618-204.695 204.695 0 112.989 91.618 204.607 204.695 204.607 112.989 0 204.607-91.618 204.607-204.607 0-113.077-91.618-204.695-204.607-204.695zM297.495 314.077c-39.327 0-44.583 18.306-44.583 18.306l-153.587-301.875 123.15 13.839 68.1-102.479c0 0 141.894 296.050 141.894 294.079-73.531 1.839-44.276 76.158-134.974 78.129zM769.161 320.558c-112.201-11.737-89.384-39.59-115.048-61.225-29.517-31.488-66.392-25.313-66.392-25.313l173.207-298.021 42.612 110.362 121.135-15.81-155.514 290.006zM554.875 657.425l-42.831 86.713-42.875-86.713-95.866-14.014 69.283-67.575-16.335-95.559 85.793 45.064 85.793-45.064-16.335 95.559 69.283 67.575z" />
<glyph unicode="&#xe605;" glyph-name="bag" d="M953.442 692.166h-272.36v34.115c0 145.283-137.804 136.754-137.804 136.754h-65.146c-145.25 0-137.738-137.771-137.738-137.771v-33.098h-273.41c-69.476 0-66.983-68.394-66.983-68.394v-133.507c0 0 291.583-106.084 509.851-106.084 238.508 0 514.050 107.133 514.050 107.133v132.457c0.033 71.641-70.46 68.394-70.46 68.394zM432.339 729.135c0 68.394 80.268 69.41 80.268 69.41 81.416 0 78.923-70.46 78.923-70.46v-34.213h-159.191v35.263zM596.647 409.539l-169.393-0.131v65.31h169.393v-65.179zM1023.934 101.293v340.721c0 0-221.811-102.147-515.526-102.147-270.195 0-508.408 105.329-508.408 105.329v-343.87c0-69.443 65.868-68.426 65.868-68.426h888.689c73.675-0.033 69.378 68.394 69.378 68.394zM596.647 281.477c0-23.454-18.894-42.381-42.283-42.381h-84.762c-23.388 0-42.348 18.927-42.348 42.381v43.693h169.393v-43.693z" />
<glyph unicode="&#xe606;" glyph-name="bag-alt" d="M506.829 871.229h10.339c74.908 0 135.956-60.492 136.846-135.195h88.774c-0.897 123.649-101.764 223.966-225.62 223.966h-10.339c-123.856 0-224.724-100.317-225.62-223.966h88.774c0.891 74.704 61.938 135.195 136.846 135.195zM898.871 704.964h-773.746c-9.803 0-17.754-7.951-17.754-17.754v-662.436c0-48.948 39.823-88.771 88.771-88.771h631.712c48.948 0 88.771 39.823 88.771 88.771v662.436c0 9.803-7.948 17.754-17.754 17.754zM705.445 533.84c-28.14 0-51.031 22.894-51.031 51.037s22.891 51.040 51.031 51.040c28.143 0 51.040-22.897 51.040-51.040 0-28.14-22.897-51.037-51.040-51.037zM318.552 533.84c-28.143 0-51.040 22.894-51.040 51.037s22.897 51.040 51.040 51.040c28.14 0 51.031-22.897 51.031-51.040 0-28.14-22.891-51.037-51.031-51.037z" />
<glyph unicode="&#xe607;" glyph-name="bars" d="M1024 38.413v737.258c0 22.631-18.335 40.967-40.95 40.967h-204.808c-22.623 0-40.95-18.335-40.95-40.967v-737.258c0-22.64 18.327-40.967 40.95-40.967h204.8c22.623 0 40.958 18.327 40.958 40.967zM389.129-2.554h225.279c22.623 0 40.958 18.327 40.958 40.967v819.183c0 22.631-18.335 40.958-40.958 40.958h-225.279c-22.631 0-40.967-18.327-40.967-40.958v-819.183c0-22.64 18.327-40.967 40.967-40.967zM40.958 570.879c-22.631 0-40.958-18.327-40.958-40.958v-491.508c0-22.64 18.327-40.967 40.958-40.967h204.8c22.631 0 40.958 18.327 40.958 40.967v491.508c0 22.631-18.327 40.958-40.958 40.958h-204.8z" />
<glyph unicode="&#xe608;" glyph-name="behance" d="M413.268 482.332c0 0 96.893 7.194 96.893 120.847 0 113.642-79.278 169.085-179.709 169.085h-330.452v-635.059h330.452c0 0 201.728-6.381 201.728 187.437 0.011 0 8.807 157.691-118.912 157.691zM145.602 659.38h184.861c0 0 44.925 0 44.925-66.067s-26.433-75.644-56.383-75.644h-173.403v141.711zM321.933 250.056h-176.332v169.726h184.851c0 0 66.954 0.855 66.954-87.22 0-73.442-48.965-81.769-75.473-82.506zM664.624 734.853h262.023v-78.209h-262.023v78.209zM801.237 610.672c-244.216 0-244.002-243.981-244.002-243.981s-16.739-242.773 244.013-242.773c0 0 217.312-12.42 217.312 168.892h-111.761c0 0 3.73-68.312-101.821-68.312 0 0-111.75-7.471-111.75 110.521h329.052c0 0 36 275.651-221.043 275.651zM900.577 419.782h-208.612c0 0 13.649 97.887 111.75 97.887 98.112 0.011 96.861-97.887 96.861-97.887z" />
<glyph unicode="&#xe609;" glyph-name="mail-fill" d="M932.564 45.713c23.018 0 42.963 7.6 59.918 22.607l-290.116 290.127c-6.961-4.984-13.707-9.831-20.080-14.44-21.711-15.996-39.332-28.478-52.863-37.422-13.529-8.965-31.529-18.102-53.998-27.431-22.484-9.34-43.431-13.996-62.863-13.996h-1.138c-19.433 0-40.38 4.653-62.863 13.996-22.482 9.329-40.483 18.467-53.998 27.431-13.529 8.944-31.14 21.425-52.863 37.422-6.053 4.438-12.767 9.307-20.025 14.518l-290.171-290.205c16.953-15.007 36.911-22.607 59.927-22.607h841.132zM57.72 541.14c-21.709 14.473-40.96 31.049-57.72 49.721v-441.404l255.707 255.707c-51.156 35.714-117.068 80.987-197.986 135.977zM966.858 541.14c-77.833-52.68-143.984-98.032-198.462-136.079l255.604-255.616v441.415c-16.388-18.296-35.433-34.861-57.142-49.721zM932.564 850.287h-841.13c-29.345 0-51.905-9.909-67.71-29.707-15.817-19.807-23.713-44.578-23.713-74.285 0-23.996 10.478-49.996 31.425-78.007 20.947-28 43.236-49.994 66.856-65.992 12.949-9.149 51.998-36.296 117.148-81.432 35.169-24.371 65.754-45.614 92.036-63.945 22.403-15.609 41.723-29.127 57.674-40.345 1.831-1.285 4.711-3.345 8.533-6.077 4.118-2.958 9.329-6.711 15.758-11.354 12.38-8.954 22.665-16.191 30.856-21.72 8.18-5.531 18.091-11.709 29.718-18.569 11.618-6.851 22.575-12.003 32.86-15.429 10.287-3.425 19.809-5.142 28.569-5.142h1.138c8.758 0 18.283 1.718 28.571 5.142 10.283 3.426 21.231 8.567 32.858 15.429 11.616 6.86 21.514 13.051 29.72 18.569 8.191 5.529 18.476 12.765 30.858 21.72 6.416 4.642 11.627 8.398 15.745 11.344 3.824 2.744 6.702 4.791 8.545 6.087 12.426 8.647 31.791 22.109 57.826 40.187 47.374 32.916 117.144 81.363 209.602 145.535 27.807 19.422 51.039 42.86 69.71 70.281 18.638 27.42 27.982 56.183 27.982 86.279 0 25.145-9.060 46.66-27.14 64.581-18.1 17.898-39.534 26.851-64.296 26.851z" />
<glyph unicode="&#xe60a;" glyph-name="delete-fill" d="M192.863 591.625c-0.828 0-0.828 0-1.656 0v-605.956c0-27.318 22.351-49.669 49.669-49.669h542.215c27.318 0 49.669 22.351 49.669 49.669 0 0-0.828 605.956-1.656 605.956h-638.241zM368.367 107.357c0-23.187-18.212-41.39-41.39-41.39s-41.39 18.204-41.39 41.39v319.534c0 23.179 18.212 41.39 41.39 41.39s41.39-18.212 41.39-41.39v-319.534zM553.788 107.357c0-23.187-18.212-41.39-41.39-41.39s-41.39 18.204-41.39 41.39v319.534c0 23.179 18.212 41.39 41.39 41.39s41.39-18.212 41.39-41.39v-319.534zM739.217 107.357c0-23.187-18.204-41.39-41.39-41.39-23.17 0-41.39 18.204-41.39 41.39v319.534c0 23.179 18.22 41.39 41.39 41.39 23.187 0 41.39-18.212 41.39-41.39v-319.534zM831.94 793.61h-89.403c-14.064 0-24.834 10.762-24.834 24.834v90.231c0 28.146-23.179 51.324-51.316 51.324h-307.962c-28.146 0-51.324-23.179-51.324-51.324v-89.403c0-14.073-10.762-24.834-24.834-24.834h-89.403c-28.146 0-51.324-23.179-51.324-51.324v-17.384c0-28.146 22.351-50.496 49.669-51.324 0.828 0 0.828 0 1.656 0h638.241c0.836 0 0.836 0 1.656 0 27.318 0.828 49.669 23.179 49.669 51.324v17.384c0.828 28.146-22.351 50.496-50.488 50.496zM632.43 794.438v0h-239.237v54.635c0 14.073 11.589 25.662 25.662 25.662h187.904c14.081 0 25.67-11.589 25.67-25.662v-54.635z" />
<glyph unicode="&#xe60b;" glyph-name="blogger" d="M1017.5 321.070c-0.331 76.145-0.566 131.167-38.019 179.572-42.427 54.798-107.867 64.084-160.915 65.664 8.934 38.286 11.517 80.735 7.386 126.62-1.131 152.813-114.837 262.655-272.645 267.010l-2.273 0.064-243.966-0.181c-93.874 0-168.077-28.029-220.558-83.296-32.48-34.187-75.622-93.906-80.19-190.47l-0.192-389.371c-0.47-7.354 0.267-14.783 0.171-22.414 0-110.781 17.729-190.523 73.093-249.452 55.321-58.929 137.123-88.804 243.101-88.804 2.295 0 4.611 0.011 6.927 0.043h369.615c94.546 0.79 174.438 31.999 231.040 90.245 56.495 58.139 86.915 140.976 87.95 239.525-0.011 0-0.459 39.674-0.523 55.246zM329.237 752.325l206.235 0.245c48.607-0.768 87.395-44.306 86.605-92.913-0.768-48.127-40.015-83.243-87.971-83.243-0.47 0-207.654-0.085-207.654-0.085-48.607 0.779-87.374 40.805-86.595 89.391 0.768 48.607 40.709 87.075 89.38 86.605zM716.879 173.017h-412.458c-48.597 0-88.014 39.396-88.014 88.014 0 48.607 39.417 88.014 88.014 88.014h412.469c48.618 0 88.014-39.407 88.014-88.014 0-48.618-39.407-88.014-88.025-88.014z" />
<glyph unicode="&#xe60c;" glyph-name="box" d="M960 704h-896c-35.328 0-64-28.672-64-64v-192h64v-448c0-35.328 28.672-64 64-64h768c35.328 0 64 28.672 64 64v448h64v192c0 35.328-28.672 64-64 64zM448 0h-320v448h320v-448zM448 512h-384v128h384v-128zM896 0h-318.656v448h318.656v-448zM960 512h-382.656v128h382.656v-128zM256 768h256l-0.064 0.512h0.192l-0.128-0.512h256c88.384 0 128 43.008 128 96s-39.616 96-128 96c-82.752 0-147.904-37.248-192-80.448-19.328 11.456-41.6 18.432-65.856 18.432-23.168 0-44.608-6.528-63.424-17.152-44.032 42.688-108.8 79.168-190.72 79.168-88.384 0-128-43.008-128-96s39.616-96 128-96zM768 896c29.184 0 64-5.568 64-32s-34.816-32-64-32h-145.344l-1.408 2.688c32.448 31.616 81.728 61.312 146.752 61.312zM256 896c63.616 0 111.872-28.48 144.384-59.008l-2.752-4.992h-141.632c-29.184 0-64 5.568-64 32s34.816 32 64 32z" />
<glyph unicode="&#xe60d;" glyph-name="buttons" d="M247.916 582.737h-226.358c-11.9 0-21.558-9.658-21.558-21.558v-226.358c0-11.9 9.658-21.558 21.558-21.558h226.358c11.9 0 21.558 9.658 21.558 21.558v226.358c0 11.9-9.647 21.558-21.558 21.558zM625.179 582.737h-226.358c-11.9 0-21.558-9.658-21.558-21.558v-226.358c0-11.9 9.658-21.558 21.558-21.558h226.358c11.9 0 21.558 9.658 21.558 21.558v226.358c0 11.9-9.647 21.558-21.558 21.558zM1002.442 582.737h-226.358c-11.9 0-21.558-9.658-21.558-21.558v-226.358c0-11.9 9.658-21.558 21.558-21.558h226.358c11.9 0 21.558 9.658 21.558 21.558v226.358c0 11.9-9.647 21.558-21.558 21.558z" />
<glyph unicode="&#xe60e;" glyph-name="chat" d="M146.495-15.225c0 68.981 0 129.395 0 187.829-4.164 3.345-5.564 5.256-7.373 5.7-104.752 25.736-139.055 69.322-139.055 177.078 0 132.262-0.205 264.525 0.102 396.787 0.205 99.188 58.742 158.339 158.544 158.612 236.195 0.546 472.321 0.649 708.55 0.034 98.198-0.273 156.155-59.492 156.428-157.486 0.307-119.667 0.444-239.335 0.068-359.037-0.444-135.3-76.559-213.258-212.302-214.896-122.808-1.468-245.581-0.956-368.423 0.068-26.657 0.239-47.853-6.792-68.981-23.107-72.906-56.386-147.11-111.169-227.559-171.583zM245.649 182.025c39.081 29.081 72.326 55.704 107.653 79.221 13.755 9.147 32.153 15.667 48.502 15.837 138.508 1.195 277.017 0.444 415.525 0.751 70.756 0.205 108.813 38.672 108.848 109.086 0.137 119.633 0.034 239.301-0.034 358.968-0.034 52.017-15.53 67.889-66.797 67.923-232.918 0.205-465.904 0.239-698.891 0.273-43.314 0-62.462-17.544-62.598-60.209-0.478-138.543-0.546-277.051-0.034-415.594 0.171-44.338 16.964-59.868 61.813-60.448 27.784-0.375 55.635-0.068 86.047-0.068-0.034-33.552-0.034-61.37-0.034-95.741zM487.715 618.61c-79.665 0-159.363-0.171-239.028 0.102-22.732 0.068-43.962 8.055-48.434 31.606-2.935 15.496 0.273 36.214 9.079 48.638 7.373 10.342 26.862 16.725 41.061 16.861 156.223 1.229 312.378 1.092 468.601 0.819 38.911-0.034 60.619-18.192 61.131-48.399 0.58-31.060-22.254-49.492-62.872-49.628-76.524-0.307-153.049-0.102-229.641-0.102 0.102 0.034 0.102 0.068 0.102 0.102zM441.193 423.408c-61.848-0.034-123.661-0.205-185.508 0.034-37.614 0.171-60.209 18.875-60.209 49.048-0.034 30.344 21.606 48.263 60.516 48.399 121.579 0.307 243.089 0.375 364.668 0.068 42.119-0.102 61.95-17.134 60.994-50.243-0.853-30.787-21.742-47.137-61.233-47.239-59.765-0.171-119.497-0.068-179.228-0.068z" />
<glyph unicode="&#xe60f;" glyph-name="clear" d="M1024 857.6l-102.4 102.4-409.6-409.6-409.6 409.6-102.4-102.4 409.6-409.6-409.6-409.6 102.4-102.4 409.6 409.6 409.6-409.6 102.4 102.4-409.6 409.6z" />
<glyph unicode="&#xe610;" glyph-name="clock" d="M512 960c-282.322 0-512-229.683-512-512s229.678-512 512-512c282.319 0 512 229.678 512 512 0 282.319-229.681 512-512 512zM727.309 106.057l-22.065 37.953c-2.547 4.379-7.284 7.101-12.361 7.101-2.528 0-4.926-0.652-7.136-1.938-3.298-1.916-5.648-4.996-6.624-8.68-0.967-3.684-0.455-7.526 1.461-10.825l22.094-37.998c-49.362-26.524-104.841-43.070-163.732-46.969v53.604c0 14.88-12.070 26.947-26.947 26.947-14.88 0-26.947-12.067-26.947-26.947v-53.598c-58.020 3.837-112.732 19.971-161.547 45.816l21.857 38.128c1.894 3.304 2.39 7.146 1.393 10.827-0.997 3.676-3.366 6.742-6.669 8.637-2.194 1.258-4.573 1.897-7.071 1.897-5.109 0-9.863-2.751-12.404-7.176l-21.833-38.085c-48.691 30.359-90.497 70.764-122.468 118.321l46.317 26.74c12.886 7.44 17.303 23.921 9.86 36.81-7.44 12.886-23.921 17.303-36.807 9.86l-46.382-26.778c-24.404 49.446-38.982 104.556-41.186 162.789l44.005 0.135c3.81 0.011 7.386 1.506 10.070 4.206s4.158 6.29 4.145 10.1c-0.024 7.842-6.424 14.217-14.263 14.217l-44.054-0.135c1.884 59.147 16.535 115.119 41.281 165.26l46.382-26.778c4.242-2.45 8.874-3.614 13.444-3.614 9.313 0 18.373 4.832 23.363 13.476 7.443 12.889 3.026 29.37-9.86 36.81l-46.317 26.74c31.51 46.88 72.577 86.811 120.377 117.016l22.065-37.953c1.277-2.194 3.029-3.942 5.214-5.198 4.36-2.495 9.887-2.522 14.279 0.035 3.298 1.916 5.651 5.001 6.624 8.685 0.975 3.681 0.455 7.521-1.458 10.814l-22.091 38.001c49.365 26.524 104.844 43.073 163.732 46.969v-53.596c0-14.883 12.067-26.947 26.947-26.947s26.947 12.064 26.947 26.947v53.596c58.018-3.837 112.726-19.968 161.541-45.813l-21.857-38.128c-3.91-6.823-1.541-15.557 5.279-19.467 2.191-1.256 4.57-1.894 7.071-1.894 5.112 0 9.863 2.749 12.396 7.171l21.838 38.090c48.697-30.356 90.503-70.766 122.473-118.323l-46.317-26.74c-12.889-7.44-17.303-23.921-9.86-36.81 4.996-8.645 14.050-13.476 23.363-13.476 4.57 0 9.205 1.164 13.444 3.614l46.382 26.778c24.406-49.443 38.982-104.556 41.186-162.789l-44.005-0.135c-3.81-0.011-7.386-1.506-10.068-4.206-2.684-2.703-4.158-6.287-4.145-10.097 0.016-5.085 2.767-9.814 7.19-12.35 2.14-1.226 4.581-1.87 7.068-1.87h0.046l44.013 0.135c-1.884-59.147-16.535-115.122-41.281-165.26l-46.382 26.778c-12.892 7.443-29.365 3.026-36.807-9.863-7.443-12.886-3.029-29.367 9.86-36.807l46.317-26.74c-31.518-46.875-72.58-86.808-120.382-117.019zM711.157 594.122l-172.843-95.9c-7.869 4.131-16.81 6.5-26.319 6.5-9.507 0-18.448-2.366-26.317-6.5l-172.843 95.9c-16.341 9.070-36.948 3.169-46.021-13.175-9.065-16.344-3.169-36.948 13.18-46.018l176.352-97.849c5.096-26.099 28.058-45.802 55.646-45.802s50.553 19.704 55.646 45.802l176.349 97.849c16.346 9.068 22.242 29.672 13.177 46.018-9.057 16.346-29.658 22.245-46.007 13.175z" />
<glyph unicode="&#xe611;" glyph-name="clock-arrow" d="M578.789 894.638c-242.154 0-439.002-193.972-444.939-435.483h-133.85l200.366-223.319 200.345 223.319h-155.539c5.872 179.832 152.935 323.824 333.617 323.824 184.429 0 333.911-149.972 333.911-334.979s-149.482-334.979-333.911-334.979c-73.957 0-142.26 24.162-197.578 64.991l-76.571-81.931c75.591-59.327 170.747-94.72 274.149-94.72 245.891 0 445.211 199.952 445.211 446.638s-199.321 446.638-445.211 446.638zM539.212 687.66v-255.455l163.698-163.666 53.913 53.913-141.334 141.345v223.864h-76.277z" />
<glyph unicode="&#xe612;" glyph-name="delete" d="M846.89 839.425h-136.723v88.846c0 17.883-14.425 31.729-32.307 31.729-1.735 0-2.892-0.579-3.457-1.157-0.579 0.578-1.736 1.157-2.314 1.157h-325.95c-17.882 0-31.728-13.846-31.728-31.729v-88.847h-137.301c-39.236 0-69.808-30.572-69.808-69.808v-114.225h60.576v-650.162c0-39.237 29.994-69.23 69.23-69.23h549.785c39.236 0 69.806 29.993 69.806 69.23v650.162h59.998v114.225c0 39.236-30.584 69.809-69.808 69.809zM377.868 896.543h268.265v-57.118h-268.265v57.118zM792.665 5.227c0-4.048-1.735-5.77-5.772-5.77h-549.785c-4.036 0-5.772 1.723-5.772 5.77v650.165h561.328v-650.165zM852.663 718.849h-681.326v50.768c0 4.038 1.735 6.351 5.772 6.351h669.782c4.038 0 5.773-2.313 5.773-6.351v-50.768zM628.249 580.968h64.035v-524.973h-64.035v524.973zM480.561 580.968h64.035v-524.973h-64.035v524.973zM332.871 580.968h64.035v-524.973h-64.035v524.973z" />
<glyph unicode="&#xe613;" glyph-name="digg" d="M163.843 611.848h-163.843v-348.173h266.231v491.528h-102.388v-143.354zM163.843 345.596h-61.444v184.31h61.444v-184.31zM307.207 611.848h102.388v-348.173h-102.388v348.173zM307.207 755.202h102.388v-102.409h-102.388v102.409zM450.562 263.675h163.843v-40.955h-163.843v-81.932h266.231v471.060h-266.231v-348.173zM552.982 529.905h61.433v-184.31h-61.433v184.31zM757.78 611.848v-348.173h163.832v-40.955h-163.832v-81.932h266.22v471.060h-266.22zM921.612 345.596h-61.444v184.31h61.444v-184.31z" />
<glyph unicode="&#xe614;" glyph-name="dribbble" d="M512 959.313c-282.314-0.011-511.989-229.369-512-511.313 0.011-281.945 229.686-511.313 512-511.313s511.989 229.369 512 511.313c-0.011 281.945-229.686 511.303-512 511.313zM848.866 717.957c58.385-72.358 93.915-163.791 95.562-263.346-19.434 3.929-101.752 19.328-200.113 19.328-31.727 0-65.124-1.616-98.604-5.724-2.82 6.844-5.672 13.73-8.618 20.638-8.703 20.426-18.029 40.684-27.746 60.614 151.339 62.367 224.405 148.92 239.518 168.491zM512 879.298c109.081 0 208.805-40.546 284.976-107.318-12.072-16.466-77.449-98.161-223.401-153.356-67.542 123.54-141.527 225.767-159.123 249.52 31.368 7.277 64.004 11.153 97.548 11.153zM326.198 837.326c14.913-20.511 88.951-123.836 158.236-246.394-185.949-48.858-351.092-52.069-390.931-52.069-1.627 0-3.031 0-4.225 0 28.612 131.969 117.795 241.631 236.92 298.463zM79.445 447.335c0 3.549 0.084 7.108 0.19 10.667 2.588-0.042 6.379-0.084 11.343-0.084 53.653 0 239.983 4.468 431.984 61.459 11.65-22.813 22.76-45.943 33.048-69.052-4.806-1.394-9.611-2.809-14.364-4.341-216.167-69.834-335.028-254.664-353.3-284.86-67.722 76.298-108.902 176.518-108.902 286.212zM512 15.361c-99.248 0-190.744 33.607-263.821 89.933 12.347 24.229 102.016 185.717 338.946 268.183 0.169 0.053 0.338 0.116 0.496 0.18 59.367-154.687 84.536-284.501 91.475-324.709-51.436-21.62-107.898-33.586-167.097-33.586zM756.968 91.521c-5.798 33.269-29.098 154.94-82.909 303.322 30.185 4.668 59.557 6.517 87.081 6.517 90.398 0.011 161.119-19.782 177.553-24.778-19.539-117.879-87.007-219.81-181.725-285.061z" />
<glyph unicode="&#xe615;" glyph-name="ecommerce" d="M876.242 432.933v257.597c0 18.958-15.387 34.345-34.345 34.345h-582.701l-19.613 56.911c-5.977 17.328-22.273 28.955-40.596 28.955h-147.056c-23.717 0-42.933-19.217-42.933-42.934s19.216-42.933 42.933-42.933h116.435l101.063-293.3 2.919-9.118c0.155-0.499 0.515-0.892 0.704-1.389l51.038-148.102c5.959-17.311 22.274-28.937 40.58-28.937h511.572c23.716 0 42.933 19.216 42.933 42.933s-19.216 42.933-42.933 42.933h-480.949l-23.664 68.693h470.269c18.958 0 34.345 15.387 34.345 34.345zM326.702 528.947l-8.331 24.197h8.331v-24.197zM326.702 570.317h-14.253l-29.588 85.865h43.843v-85.865zM395.393 467.279h-47.45l-4.070 11.831v74.033h51.519v-85.865zM395.393 570.317h-51.519v85.865h51.519v-85.865zM464.087 467.279h-51.519v85.865h51.519v-85.865zM464.087 570.317h-51.519v85.865h51.519v-85.865zM532.779 467.279h-51.519v85.865h51.519v-85.865zM532.779 570.317h-51.519v85.865h51.519v-85.865zM601.471 467.279h-51.519v85.865h51.519v-85.865zM601.471 570.317h-51.519v85.865h51.519v-85.865zM670.165 467.279h-51.519v85.865h51.519v-85.865zM670.165 570.317h-51.519v85.865h51.519v-85.865zM738.858 467.279h-51.519v85.865h51.519v-85.865zM738.858 570.317h-51.519v85.865h51.519v-85.865zM807.55 467.279h-51.519v85.865h51.519v-85.865zM807.55 570.317h-51.519v85.865h51.519v-85.865zM529.774 151.533c0-36.601-29.671-66.271-66.271-66.271s-66.271 29.671-66.271 66.271c0 36.601 29.671 66.271 66.271 66.271s66.271-29.671 66.271-66.271zM856.905 151.533c0-36.601-29.671-66.271-66.271-66.271s-66.271 29.671-66.271 66.271c0 36.601 29.671 66.271 66.271 66.271s66.271-29.671 66.271-66.271z" />
<glyph unicode="&#xe616;" glyph-name="eye" d="M1011.223 476.948c0 0-277.262 275.605-499.194 275.605s-499.196-275.605-499.196-275.605c-17.038-15.981-17.188-42.215 0-57.893 0 0 277.264-275.607 499.196-275.607s499.194 275.607 499.194 275.607c16.886 15.979 17.188 42.061 0 57.893zM514.14 226.069c-121.973 0-221.027 98.906-221.027 221.027s98.904 221.027 221.027 221.027c122.122 0 221.025-99.054 221.025-221.027s-99.054-221.027-221.025-221.027zM511.576 590.024c-77.495 0-140.366-63.171-140.366-140.818 0-77.645 62.871-140.818 140.366-140.818s140.366 63.173 140.366 140.818c0 77.645-62.869 140.818-140.366 140.818zM564.497 448.753c-23.971 0-43.571 19.602-43.571 43.875s19.6 43.873 43.571 43.873 43.571-19.6 43.571-43.873-19.298-43.875-43.571-43.875z" />
<glyph unicode="&#xe617;" glyph-name="facebook" d="M777.883 790.023l-96.391-0.043c-75.576 0-90.208-35.915-90.208-88.622v-116.216h180.246l-0.064-182.034h-180.182v-467.109h-188.003v467.109h-157.175v182.034h157.175v134.232c0 155.792 95.167 240.626 234.145 240.626l140.468-0.223-0.011-169.753z" />
<glyph unicode="&#xe618;" glyph-name="favorite" d="M512-23.040l-71.68 71.68c-266.24 235.52-440.32 394.24-440.32 588.8 0 158.72 122.88 281.6 281.6 281.6 87.040 0 174.080-40.96 230.4-107.52 56.32 66.56 143.36 107.52 230.4 107.52 158.72 0 281.6-122.88 281.6-281.6 0-194.56-174.080-353.28-440.32-588.8l-71.68-71.68z" />
<glyph unicode="&#xe619;" glyph-name="star-fill" d="M979.438 602.76l-281.99 26.665c-17.776 1.616-33.137 12.928-40.401 29.897l-101.002 244.829c-16.16 40.401-73.538 40.401-89.698 0l-100.194-244.829c-6.464-16.968-22.624-28.281-40.401-29.897l-281.998-26.665c-42.017-4.040-58.985-56.561-27.473-84.842l212.508-186.652c13.736-12.12 19.392-29.897 15.352-47.673l-63.833-261.789c-9.696-41.217 34.745-75.146 71.914-53.337l235.133 138.179c15.352 8.888 33.937 8.888 49.289 0l235.141-138.179c37.169-21.808 81.61 11.312 71.905 53.337l-63.025 261.789c-4.040 17.776 1.616 35.553 15.352 47.673l212.508 186.652c30.705 28.281 12.928 80.802-29.089 84.842z" />
<glyph unicode="&#xe61a;" glyph-name="flickr" d="M449.561 443.837c0-134.488-100.638-243.512-224.78-243.512s-224.78 109.024-224.78 243.512c0 134.488 100.638 243.512 224.78 243.512s224.78-109.024 224.78-243.512zM792.976 684.228c-128 0-231.024-107.187-231.024-240.39s103.024-241.431 231.024-241.431c128 0 231.024 108.228 231.024 241.431s-104.065 240.39-231.024 240.39zM792.976 281.496c-86.374 0-156.098 72.846-156.098 162.341s69.724 162.341 156.098 162.341c86.374 0 156.098-72.846 156.098-162.341s-70.764-162.341-156.098-162.341z" />
<glyph unicode="&#xe61b;" glyph-name="forward" d="M1024 476.444l-398.222 398.222v-227.556c-398.222-56.889-568.889-341.333-625.778-625.778 142.222 199.111 341.333 290.133 625.778 290.133v-233.244l398.222 398.222z" />
<glyph unicode="&#xe61c;" glyph-name="gear" d="M1020.781 504.851c-1.619 14.394-18.402 25.211-32.915 25.211-46.92 0-88.556 27.55-106.018 70.158-17.839 43.64-6.336 94.534 28.632 126.611 11.007 10.062 12.344 26.906 3.113 38.607-24.015 30.495-51.31 58.042-81.112 81.915-11.67 9.365-28.792 8.062-38.912-3.143-30.518-33.799-85.337-46.36-127.697-28.686-44.082 18.543-71.88 63.212-69.159 111.161 0.895 15.061-10.112 28.156-25.127 29.905-38.245 4.423-76.825 4.561-115.185 0.305-14.844-1.638-25.851-14.425-25.352-29.295 1.669-47.477-26.464-91.364-70.108-109.241-41.853-17.096-96.287-4.641-126.744 28.857-10.066 11.034-26.91 12.39-38.637 3.25-30.686-24.076-58.594-51.645-82.83-81.889-9.453-11.758-8.062-28.8 3.056-38.916 35.635-32.271 47.141-83.607 28.628-127.75-17.675-42.085-61.376-69.209-111.405-69.209-16.234 0.522-27.798-10.375-29.573-25.135-4.503-38.466-4.557-77.66-0.221-116.438 1.608-14.455 18.902-25.177 33.574-25.177 44.585 1.139 87.39-26.464 105.347-70.162 17.899-43.64 6.393-94.504-28.628-126.607-10.954-10.062-12.344-26.88-3.113-38.58 23.79-30.301 51.089-57.874 80.997-81.946 11.731-9.453 28.8-8.119 38.969 3.086 30.633 33.883 85.447 46.421 127.639 28.712 44.192-18.486 71.99-63.151 69.27-111.127-0.888-15.069 10.173-28.187 25.127-29.909 19.564-2.282 39.247-3.421 58.983-3.421 18.734 0 37.472 1.029 56.205 3.113 14.848 1.638 25.847 14.425 25.348 29.322-1.718 47.45 26.464 91.338 70.051 109.184 42.135 17.21 96.34 4.614 126.801-28.849 10.123-11.011 26.849-12.341 38.641-3.231 30.629 24.018 58.48 51.565 82.83 81.893 9.449 11.731 8.115 28.8-3.059 38.912-35.635 32.271-47.199 83.615-28.686 127.727 17.404 41.525 59.482 69.407 104.741 69.407l6.332-0.164c14.68-1.193 28.187 10.116 29.966 25.1 4.511 38.5 4.564 77.66 0.229 116.438zM512.81 276.136c-94.176 0-170.78 76.604-170.78 170.78 0 94.172 76.604 170.78 170.78 170.78 94.172 0 170.777-76.608 170.777-170.78 0-94.176-76.604-170.78-170.777-170.78z" />
<glyph unicode="&#xe61d;" glyph-name="google" d="M539.282 375.391l-48.017 37.308c-14.618 12.118-34.639 28.135-34.639 57.434 0 29.427 20.010 48.134 37.361 65.464 55.92 44.034 111.829 90.897 111.829 189.644 0 101.543-63.885 154.963-94.52 180.311h82.571l86.66 54.447h-262.544c-72.042 0-175.873-17.033-251.887-79.796-57.286-49.426-85.23-117.57-85.23-178.934 0-104.138 79.955-209.717 221.179-209.717 13.336 0 27.923 1.314 42.604 2.669-6.599-16.048-13.262-29.416-13.262-52.085 0-41.365 21.249-66.724 39.977-90.749-59.987-4.131-171.996-10.784-254.578-61.534-78.641-46.767-102.581-114.826-102.581-162.886 0-98.874 93.217-190.968 286.484-190.968 229.187 0 350.507 126.807 350.507 252.353 0.021 92.232-53.261 137.622-111.913 187.038zM364.722 528.966c-114.657 0-166.594 148.215-166.594 237.64 0 34.829 6.599 70.781 29.268 98.863 21.387 26.736 58.61 44.087 93.365 44.087 110.526 0 167.854-149.55 167.854-245.722 0-24.056-2.659-66.693-33.304-97.528-21.429-21.408-57.297-37.34-90.59-37.34zM366.036-8.049c-142.58 0-234.515 68.197-234.515 163.045 0 94.795 85.251 126.881 114.572 137.485 55.941 18.823 127.919 21.44 139.932 21.44 13.326 0 19.989 0 30.603-1.335 101.352-72.137 145.344-108.079 145.344-176.371 0.011-82.677-67.974-144.264-195.936-144.264zM875.806 531v133.523h-65.93v-133.523h-133.322v-66.671h133.322v-134.36h65.93v134.36h133.989v66.671z" />
<glyph unicode="&#xe61e;" glyph-name="help" d="M512.002 682.916c40.472 0 78.486-10.224 111.754-28.24l199.691 199.684c-86.304 66.238-194.278 105.639-311.444 105.639-117.186 0-225.147-39.401-311.467-105.639l199.71-199.684c33.213 18.019 71.279 28.24 111.757 28.24zM918.328 759.443l-199.639-199.691c18.019-33.232 28.217-71.298 28.217-111.754 0-40.472-10.195-78.538-28.217-111.767l199.639-199.691c66.28 86.298 105.672 194.272 105.672 311.457-0.003 117.173-39.392 225.143-105.672 311.444zM277.029 447.998c0 40.455 10.256 78.518 28.246 111.754l-199.684 199.691c-66.219-86.301-105.588-194.272-105.588-311.441 0-117.186 39.369-225.16 105.588-311.457l199.684 199.691c-17.99 33.226-28.246 71.295-28.246 111.763zM512.002 213.061c-40.478 0-78.544 10.227-111.757 28.243l-199.71-199.687c86.32-66.235 194.281-105.62 311.467-105.62 117.166 0 225.14 39.385 311.441 105.62l-199.691 199.687c-33.265-18.016-71.282-28.243-111.75-28.243z" />
<glyph unicode="&#xe61f;" glyph-name="home-alt" d="M124.093 466.792v-465.303h409.118v343.875h216.315v-343.863h146.559v465.289l-385.996 288.171-385.996-288.169zM419.539 164.059h-181.295v181.305h181.305v-181.305h-0.010zM1013.502 525.228l-115.51 76.887c0 98.57 0 212.885 0 212.885h-135.387c0 0 0-49.408 0-111.245l-254.099 190.755-498.148-369.363c-11.54-8.786-13.775-25.265-5-36.795 8.776-11.54 25.245-13.796 36.795-5l466.556 345.354 473.27-345.456c4.725-3.551 10.255-5.256 15.745-5.256 7.969 0 15.857 3.622 21.020 10.489 8.694 11.592 6.358 28.040-5.244 36.744z" />
<glyph unicode="&#xe620;" glyph-name="home" d="M1016.076 487.505c-9.847-15.771-26.761-24.448-44.090-24.448-9.353 0-18.94 2.546-27.514 7.898l-432.458 270.075-432.484-270.101c-24.37-15.225-56.431-7.794-71.604 16.576-15.225 24.344-7.82 56.405 16.55 71.604l459.998 287.275c16.81 10.522 38.218 10.522 55.054 0l460.050-287.301c24.318-15.225 31.723-47.234 16.498-71.578zM848.756 459.497l-309.177 193.119c-16.836 10.522-38.244 10.522-55.054 0l-309.229-193.119c-15.199-9.483-24.396-26.137-24.396-44.064v-321.752c0-28.683 23.279-51.963 51.963-51.963h170.619c28.683 0 51.963 23.279 51.963 51.963v146.482c0 47.754 38.868 86.57 86.622 86.57 47.728 0 86.596-38.868 86.596-86.57v-146.456c0-28.683 23.279-51.963 51.963-51.963h170.619c28.683 0 51.963 23.279 51.963 51.963v321.726c-0.026 17.953-9.249 34.607-24.448 44.064z" />
<glyph unicode="&#xe621;" glyph-name="hourglass" d="M828.202 720.313v71.112h51.77v168.575h-735.945v-168.57h51.77v-71.112c0-115.971 62.948-217.284 156.287-272.316-93.344-55.032-156.287-156.345-156.287-272.316v-71.112h-51.77v-168.57h735.945v168.57h-51.77v71.112c0 115.971-62.948 217.284-156.287 272.316 93.338 55.026 156.287 156.345 156.287 272.31zM740.43 175.687v-71.112h-456.859v71.112c0 125.944 102.471 228.427 228.427 228.427s228.433-102.489 228.433-228.427zM512.003 491.886c-125.956 0-228.427 102.489-228.427 228.427v71.112h456.859v-71.112c-0.006-125.944-102.477-228.427-228.433-228.427z" />
<glyph unicode="&#xe622;" glyph-name="identification-alt" d="M921.591 800h-819.218c-56.529 0-102.373-45.029-102.373-100.564v-502.873c0-55.531 45.844-100.564 102.373-100.564h819.218c56.564 0 102.409 45.033 102.409 100.564v502.873c0 55.535-45.844 100.564-102.409 100.564zM192.002 601.594c0 69.094 52.188 102.405 95.905 102.405 45.219 0 95.905-33.312 95.905-102.405v-51.187c0-69.126-70.249-102.405-95.905-102.405-24.311 0-95.905 33.279-95.905 102.405v51.187zM479.995 255.999c0-46.438-15.622-63.998-63.995-63.998h-255.969c-48.376 0-64.002 17.56-64.002 63.998-0.064 0.501 0 31.438 0 32.003 0 35.157 16.034 84.72 72.813 123.095 23.532 15.905 53.311-9.751 87.187-39.594l9.347-9.347c0.311-0.311 10.623-10.155 22.906-10.155 12.465 0 22.466 10.266 22.466 10.266v-0.018l9.25 9.254c33.876 29.839 59.5 54.998 87.187 39.594 59.876-33.315 72.809-87.942 72.809-123.095 0-0.565 0.068-31.502 0-32.003zM896 255.999h-288c-17.686 0-31.996 14.332-31.996 32.003s14.31 31.999 31.996 31.999h288c17.686 0 31.996-14.328 31.996-31.999 0.004-17.671-14.31-32.003-31.996-32.003zM896 415.999h-288c-17.686 0-31.996 14.328-31.996 32.003 0 17.671 14.31 31.999 31.996 31.999h288c17.686 0 31.996-14.328 31.996-31.999 0.004-17.671-14.31-32.003-31.996-32.003zM896 575.999h-288c-17.686 0-31.996 14.332-31.996 32.003s14.31 31.999 31.996 31.999h288c17.686 0 31.996-14.328 31.996-31.999 0.004-17.671-14.31-32.003-31.996-32.003z" />
<glyph unicode="&#xe623;" glyph-name="identification" d="M661.646 805.539h-55.574c-3.366 0-3.853 4.868-4.33 7.251-8.373 41.921-45.358 73.513-89.743 73.513-43.978 0-80.693-31.013-89.511-72.365-0.591-2.754-0.407-8.4-4.672-8.4h-55.47c-8.883 0-15.134-7.195-13.885-15.998l14.321-100.849c1.25-8.797 9.539-15.992 18.429-15.992h261.573c8.88 0 17.176 7.195 18.423 15.992l14.321 100.849c1.255 8.803-4.992 15.998-13.882 15.998zM861.649 485.159h-273.662c-8.987 0-16.271 7.284-16.271 16.271s7.287 16.271 16.271 16.271h273.662c8.987 0 16.271-7.284 16.271-16.271s-7.284-16.271-16.271-16.271zM861.649 352.851h-273.662c-8.987 0-16.271 7.284-16.271 16.271s7.287 16.271 16.271 16.271h273.662c8.987 0 16.271-7.284 16.271-16.271s-7.284-16.271-16.271-16.271zM861.649 220.552h-273.662c-8.987 0-16.271 7.284-16.271 16.271s7.287 16.271 16.271 16.271h273.662c8.987 0 16.271-7.284 16.271-16.271s-7.284-16.271-16.271-16.271zM981.69 779.503c0 0-171.207 0-238.179 0-6.782 0-7.99-8.15-7.99-8.15l-6.951-48.946c0 0-1.333-7.993 6.126-7.993 52.9 0 181.901 0 181.901 0 23.27 0 42.31-19.037 42.31-42.31v-554.997c0-23.273-19.040-42.31-42.31-42.31h-809.195c-23.27 0-42.31 19.037-42.31 42.31v554.994c0 23.273 19.037 42.31 42.31 42.31 0 0 127.209 0 180.598 0 5.627 0 4.464 5.948 4.464 5.948l-7.483 52.698c0 0-1.116 6.447-7.218 6.447-67.102 0-235.454 0-235.454 0-23.27 0-42.31-19.037-42.31-42.31v-685.183c0-23.273 19.040-42.31 42.31-42.31h939.38c23.27 0 42.31 19.037 42.31 42.31v685.183c0 23.273-19.040 42.31-42.31 42.31zM404.881 493.612c0-46.044-37.714-83.37-84.237-83.37s-84.237 37.326-84.237 83.37c0 46.044 37.714 83.37 84.237 83.37s84.237-37.326 84.237-83.37zM475.996 213.298l-54.292 143.497c-1.377 3.642-13.057 27.68-34.741 27.68-6.856 0-6.856 0-6.856 0-2.591-0.098-7.898-0.181-11.789-0.181h-96.905c-3.891 0-10.264 0-14.155 0 0 0-0.635 0-4.497 0-24.273 0-33.358-23.86-34.735-27.502l-54.292-143.497c-1.377-3.642-3.553-8.162 4.084-8.162h304.094c7.892 0.003 5.461 4.523 4.084 8.165z" />
<glyph unicode="&#xe624;" glyph-name="info" d="M661.737 62.408c-0.384-0.128-35.778-11.905-66.5-11.905-16.961 0-23.809 3.52-25.986 5.056-10.753 7.488-30.722 21.505 3.456 89.606l64.004 127.624c37.954 75.781 43.587 149.065 15.681 206.413-22.785 46.915-66.5 79.109-122.888 90.63-20.289 4.16-40.899 6.208-61.316 6.208-118.343 0-198.028-69.124-201.357-72.069-11.457-10.113-14.145-26.882-6.528-40.067 7.68-13.185 23.489-19.201 38.082-14.209 0.32 0.128 35.778 11.969 66.5 11.969 16.833 0 23.617-3.52 25.73-4.992 10.817-7.552 30.85-21.761-3.264-89.734l-64.004-127.688c-38.018-75.845-43.587-149.129-15.681-206.413 22.785-46.915 66.436-79.109 122.952-90.63 20.097-4.032 40.707-6.208 61.060-6.208 118.407 0 198.156 69.124 201.485 72.069 11.457 10.049 14.145 26.882 6.528 40.067-7.68 13.121-23.617 19.009-37.954 14.273zM768.048 799.99c0-88.371-71.639-160.010-160.010-160.010s-160.010 71.639-160.010 160.010c0 88.371 71.639 160.010 160.010 160.010s160.010-71.639 160.010-160.010z" />
<glyph unicode="&#xe625;" glyph-name="instagram" d="M131.434 960h761.132c72.283 0 131.424-53.516 131.424-131.424v-761.153c0-77.908-59.141-131.424-131.424-131.424h-761.132c-72.304 0-131.434 53.516-131.434 131.424v761.153c0 77.908 59.13 131.424 131.434 131.424v0zM745.939 846.229c-25.359 0-46.082-20.733-46.082-46.103v-110.343c0-25.359 20.723-46.103 46.082-46.103h115.737c25.359 0 46.103 20.744 46.103 46.103v110.343c0 25.37-20.744 46.103-46.103 46.103h-115.737zM908.263 526.954h-90.125c8.527-27.841 13.142-57.332 13.142-87.844 0-170.325-142.526-308.393-318.308-308.393-175.771 0-318.276 138.068-318.276 308.393 0 30.532 4.605 60.013 13.142 87.844h-94.047v-432.552c0-22.384 18.315-40.71 40.71-40.71h713.073c22.395 0 40.71 18.315 40.71 40.71v432.552h-0.021zM512.962 649.493c-113.571 0-205.652-89.21-205.652-199.27s92.081-199.27 205.652-199.27c113.582 0 205.673 89.21 205.673 199.27s-92.081 199.27-205.673 199.27z" />
<glyph unicode="&#xe626;" glyph-name="keyboard" d="M316.192 853.133c0 14.859-11.994 26.853-26.853 26.853h-180.815c-14.859 0-26.853-11.994-26.853-26.853v-180.905c0-14.859 11.994-26.853 26.853-26.853h180.905c14.859 0 26.853 11.994 26.853 26.853v180.905h-0.089zM629.217 853.133c0 14.859-11.994 26.853-26.853 26.853h-180.815c-14.859 0-26.853-11.994-26.853-26.853v-180.905c0-14.859 11.994-26.853 26.853-26.853h180.815c14.859 0 26.853 11.994 26.853 26.853v180.905zM942.243 853.133c0 14.859-11.994 26.853-26.853 26.853h-180.815c-14.86 0-26.853-11.994-26.853-26.853v-180.905c0-14.859 11.993-26.853 26.853-26.853h180.905c14.86 0 26.853 11.994 26.853 26.853v180.905h-0.089zM316.192 538.408c0 14.859-11.994 26.853-26.853 26.853h-180.815c-14.859 0-26.853-11.994-26.853-26.853v-180.815c0-14.859 11.994-26.853 26.853-26.853h180.905c14.859 0 26.853 11.994 26.853 26.853v180.815h-0.089zM629.217 538.408c0 14.859-11.994 26.853-26.853 26.853h-180.815c-14.859 0-26.853-11.994-26.853-26.853v-180.815c0-14.859 11.994-26.853 26.853-26.853h180.815c14.859 0 26.853 11.994 26.853 26.853v180.815zM942.243 538.408c0 14.859-11.994 26.853-26.853 26.853h-180.815c-14.86 0-26.853-11.994-26.853-26.853v-180.815c0-14.859 11.993-26.853 26.853-26.853h180.905c14.86 0 26.853 11.994 26.853 26.853v180.815h-0.089zM289.337 250.624h-180.815c-14.859 0-26.853-11.994-26.853-26.853v-180.905c0-14.861 11.994-26.853 26.853-26.853h180.905c14.859 0 26.853 11.992 26.853 26.853v180.905c-0.089 14.77-12.084 26.853-26.944 26.853zM602.364 250.624h-180.815c-14.859 0-26.853-11.994-26.853-26.853v-180.905c0-14.861 11.994-26.853 26.853-26.853h180.815c14.859 0 26.853 11.992 26.853 26.853v180.905c0 14.77-11.995 26.853-26.853 26.853zM915.388 250.624h-180.815c-14.86 0-26.853-11.994-26.853-26.853v-180.905c0-14.861 11.993-26.853 26.853-26.853h180.905c14.86 0 26.853 11.992 26.853 26.853v180.905c-0.089 14.77-12.084 26.853-26.944 26.853z" />
<glyph unicode="&#xe627;" glyph-name="last" d="M869.173 493.163l-75.059 16.418c-51.63 11.73-66.845 32.847-66.845 68.027 0 39.879 31.654 63.339 83.263 63.339 56.318 0 86.779-21.117 91.478-71.554l117.303 14.074c-9.386 105.573-82.091 148.968-201.749 148.968-105.552 0-208.781-39.879-208.781-167.73 0-79.758 38.717-130.205 136.044-153.655l79.778-18.773c59.823-14.064 79.737-38.696 79.737-72.726 0-43.405-42.181-60.985-121.981-60.985-118.485 0-167.751 62.167-195.889 147.796l-38.696 117.293c-49.255 152.494-127.851 208.791-283.871 208.791-172.418 0-263.906-109.089-263.906-294.409 0-178.288 91.488-274.474 255.702-274.474 132.549 0 195.899 62.147 195.899 62.147l-37.535 102.057c0 0-61.006-68.027-152.494-68.027-80.93 0-138.409 70.371-138.409 182.986 0 144.269 72.705 195.889 144.269 195.889 103.208 0 136.044-66.855 164.214-152.494l37.535-117.303c37.535-113.777 107.896-205.265 310.827-205.265 145.472 0 243.982 44.567 243.982 161.859 0 95.014-53.953 144.29-154.817 167.751z" />
<glyph unicode="&#xe628;" glyph-name="lightbulb" d="M432.421 17.92h159.16c-3.121-23.405-12.091-42.91-26.916-58.523-14.821-15.604-32.376-23.398-52.664-23.398-20.286 0-37.841 7.793-52.664 23.398-14.823 15.612-23.795 35.117-26.916 58.523zM393.803 49.516h236.399l10.533 86.602h-258.635l11.704-86.602zM839.68 634.659c0-85.041-28.871-158.769-86.602-221.184-0.783-0.779-2.344-2.734-4.688-5.851-3.899-6.239-7.799-12.873-11.704-19.895-9.362-16.384-18.338-34.718-26.916-55.004-8.579-20.28-15.99-40.57-22.233-60.855-1.563-1.95-2.734-5.461-3.513-10.533-0.775-5.072-1.561-8.387-2.336-9.947-0.779-1.561-1.365-4.096-1.754-7.607s-0.587-5.265-0.587-5.265v-69.631h-334.699v67.876l-0.585 4.096c-0.39 2.734-1.365 7.222-2.925 13.458-1.561 6.244-3.121 12.093-4.682 17.555-6.241 20.284-13.652 40.578-22.235 60.855-8.581 18.726-18.334 37.839-29.256 57.344-4.68 7.801-8.972 14.433-12.873 19.895-0.779 1.561-1.95 3.511-3.511 5.851v1.171c-56.173 61.634-84.26 134.192-84.26 217.673 0 89.721 32.184 166.374 96.549 229.96s141.41 95.378 231.131 95.378 166.764-31.796 231.129-95.38 96.549-140.239 96.549-229.96zM764.783 634.659c0 69.437-24.764 128.535-74.313 177.299-49.543 48.763-109.032 73.144-178.469 73.144s-128.925-24.383-178.468-73.144-74.313-107.861-74.313-177.299c0-63.976 21.455-119.759 64.366-167.351 3.121-3.901 7.412-9.362 12.873-16.384 3.901-7.020 8.191-14.823 12.873-23.405 12.483-21.845 23.405-43.3 32.767-64.366 10.143-22.626 19.115-45.642 26.916-69.047 6.243-21.845 9.753-38.624 10.533-50.322h184.906c0.783 11.7 4.29 28.477 10.533 50.322 7.022 23.405 15.604 46.421 25.745 69.047s20.278 43.3 30.427 62.026c4.682 7.801 9.75 15.608 15.215 23.405 4.688 7.801 8.582 13.262 11.708 16.384 44.469 47.592 66.702 104.155 66.702 169.691zM571.681 544.546l-32.765 65.538-26.914 52.662-26.916-52.664-32.767-65.538-32.767 65.538-52.664-26.916 59.684-118.198 25.745-53.833 59.686 119.369 59.684-119.369 25.742 53.833 59.684 118.198-52.666 26.916-32.763-65.537z" />
<glyph unicode="&#xe629;" glyph-name="linkedin" d="M123.076 959.12c-68.014 0-123.065-55.15-123.076-123.010 0-67.926 55.051-123.065 123.087-123.065 67.849 0 122.977 55.139 122.977 123.065 0 67.871-55.139 123.010-122.988 123.010zM16.924 619.701h212.227v-682.821h-212.227v682.821zM769.43 636.68c-103.236 0-172.46-56.603-200.795-110.279h-2.839v93.3h-203.557v-682.81h212.040v337.79c0 89.053 16.957 175.31 127.367 175.31 108.826 0 110.279-101.85 110.279-181.021v-332.068h212.073v374.52c0 183.838-39.668 325.257-254.57 325.257z" />
<glyph unicode="&#xe62a;" glyph-name="list" d="M225.264 518.307v-140.652c0-23.334-18.96-42.321-42.321-42.321h-140.622c-23.362 0-42.321 18.989-42.321 42.321v140.652c0 23.39 18.96 42.321 42.321 42.321h140.622c23.362 0 42.321-18.989 42.321-42.321zM981.649 560.63h-628.742c-23.334 0-42.321-18.932-42.321-42.321v-140.652c0-23.334 18.989-42.321 42.321-42.321h628.771c23.362 0 42.321 18.989 42.321 42.321v140.652c-0.028 23.334-18.96 42.321-42.351 42.321zM182.943 881.574h-140.622c-23.362 0-42.321-18.932-42.321-42.321v-140.652c0-23.39 18.96-42.321 42.321-42.321h140.622c23.362 0 42.321 18.932 42.321 42.321v140.652c0 23.334-18.96 42.321-42.321 42.321zM981.649 881.574h-628.742c-23.334 0-42.321-18.932-42.321-42.321v-140.652c0-23.39 18.989-42.321 42.321-42.321h628.771c23.362 0 42.321 18.932 42.321 42.321v140.652c-0.028 23.334-18.96 42.321-42.351 42.321zM182.943 239.657h-140.622c-23.362 0-42.321-18.932-42.321-42.321v-140.622c0-23.418 18.96-42.321 42.321-42.321h140.622c23.362 0 42.321 18.903 42.321 42.321v140.622c0 23.39-18.96 42.321-42.321 42.321zM981.649 239.657h-628.742c-23.334 0-42.321-18.932-42.321-42.321v-140.622c0-23.418 18.989-42.321 42.321-42.321h628.771c23.362 0 42.321 18.903 42.321 42.321v140.622c-0.028 23.39-18.96 42.321-42.351 42.321z" />
<glyph unicode="&#xe62b;" glyph-name="search" d="M1003.189 56.833l-216.395 216.43c52.594 73.158 81.511 160.58 81.511 252.602 0 115.913-45.127 224.925-127.204 306.931-81.9 81.971-190.982 127.204-306.966 127.204-115.949 0-224.995-45.127-306.966-127.204-81.971-81.936-127.133-190.982-127.133-306.931s45.127-224.96 127.133-307.002c81.971-81.971 190.982-127.204 306.966-127.204 91.987 0 179.338 28.775 252.567 81.511l216.395-216.43c13.874-13.839 31.925-20.74 50.046-20.74 18.157 0 36.243 6.902 50.046 20.74 27.642 27.678 27.642 72.45 0 100.092zM227.296 318.991c-55.284 55.284-85.687 128.796-85.687 206.909s30.403 151.554 85.687 206.839c55.249 55.284 128.69 85.723 206.839 85.723s151.625-30.438 206.874-85.723c55.284-55.284 85.723-128.761 85.723-206.874s-30.403-151.59-85.723-206.909c-55.284-55.284-128.69-85.652-206.874-85.652s-151.66 30.438-206.839 85.687z" />
<glyph unicode="&#xe62c;" glyph-name="mail" d="M902.463 836.876h-780.923c-67.017 0-121.54-52.361-121.54-116.719v-544.314c0-64.358 54.523-116.719 121.54-116.719h780.923c67.017 0 121.537 52.361 121.537 116.719v544.314c0 64.358-54.521 116.719-121.537 116.719zM902.463 162.168h-780.923c-9.851 0-18.491 6.389-18.491 13.675v472.338l353.191-298.182c7.241-6.115 16.449-9.481 25.93-9.481l59.65-0.003c9.476 0 18.689 3.369 25.932 9.484l353.207 298.193v-472.354c-0.005-7.281-8.648-13.67-18.496-13.67zM512.001 442.832l-343.522 291h687.044l-343.522-291z" />
<glyph unicode="&#xe62d;" glyph-name="man" d="M829.555 368.748c-39.378 63.838-141.624 107.897-273.475 117.902-5.936 0.496-11.597-1.55-15.888-5.503-2.868-2.657-6.125-6.347-9.742-10.522-5.978-6.969-12.167-14.18-18.303-15.973h-0.011c-6.115 1.782-12.314 9.004-18.682 16.415-3.321 3.838-6.547 7.507-9.436 10.142-4.291 3.933-10.037 5.936-15.815 5.482-131.788-9.879-234.15-54.17-274.245-119.199-6.231-11.028-151.208-271.767-31.618-423.449 3.996-5.082 10.1-8.044 16.553-8.044h666.476c6.452 0 12.557 2.952 16.553 8.044 121.076 153.548-30.49 421.446-32.367 424.704zM550.777 96.602c-0.074-2.457-0.696-4.881-1.887-7.064l-22.973-42.731c-2.762-5.124-8.129-8.34-13.927-8.34s-11.176 3.216-13.917 8.34l-22.984 42.731c-1.16 2.182-1.813 4.607-1.877 7.064l-8.139 306.443c-0.148 5.198 2.298 10.132 6.473 13.2l31.102 22.699c5.556 4.059 13.084 4.059 18.651 0l31.123-22.699c4.196-3.068 6.632-8.002 6.484-13.2l-8.129-306.443zM508.32 512.998c123.227 0 223.491 100.275 223.491 223.512 0 123.227-100.275 223.491-223.491 223.491-123.237 0-223.512-100.264-223.512-223.491 0-123.237 100.264-223.512 223.512-223.512z" />
<glyph unicode="&#xe62e;" glyph-name="message" d="M844.469 939.232h-664.938c-98.995 0-179.531-80.539-179.531-179.534v-410.135c0-98.995 80.536-179.531 179.531-179.531l423.53-0.003 202.744-202.741c6.871-6.874 16.052-10.519 25.399-10.519 4.625 0 9.29 0.896 13.731 2.737 13.417 5.555 22.167 18.643 22.167 33.169v178.776c88.355 11.16 156.899 86.781 156.899 178.112v410.135c0 98.995-80.536 179.534-179.531 179.534zM952.188 349.559c0-59.398-48.321-107.719-107.719-107.719h-13.274c-19.829 0-35.906-16.080-35.906-35.906v-126.574l-151.964 151.964c-6.733 6.736-15.862 10.516-25.39 10.516h-438.404c-59.398 0-107.719 48.321-107.719 107.719v410.135c0 59.398 48.321 107.719 107.719 107.719h664.938c59.398 0 107.719-48.321 107.719-107.719v-410.135zM776.27 684.978h-528.54c-19.829 0-35.906-16.075-35.906-35.906 0-19.829 16.077-35.906 35.906-35.906h528.54c19.829 0 35.906 16.077 35.906 35.906 0 19.832-16.075 35.906-35.906 35.906zM776.27 483.903h-528.54c-19.829 0-35.906-16.075-35.906-35.906s16.077-35.906 35.906-35.906h528.54c19.829 0 35.906 16.077 35.906 35.906s-16.075 35.906-35.906 35.906z" />
<glyph unicode="&#xe62f;" glyph-name="money" d="M461.648 476.535c8.838 7.605 21.374 12.537 37.815 13.77v-94.33c-20.14 6.371-33.91 13.768-41.515 20.14-7.605 7.605-11.303 16.442-11.303 28.978 1.233 12.535 6.166 22.605 15.002 31.442zM830.14 779.673c-16.442 60.422-64.12 83.029-119.406 67.821l-488.105-130.71h623.951l-16.442 62.888zM992.5 560.796v-420.078c0-54.051-42.748-96.801-96.799-96.801h-767.403c-54.051 0-96.799 42.75-96.799 96.801v420.078c0 54.051 42.748 96.799 96.799 96.799h767.197c53.024 0.002 97.005-43.98 97.005-96.799zM657.917 274.102c0 31.447-10.068 55.282-30.211 72.959-20.14 17.676-50.352 30.209-91.865 39.048h-1.235v101.94c27.745-3.7 54.051-15.002 77.89-31.445l35.143 50.352c-35.143 23.84-72.959 37.815-113.24 40.282v27.745h-35.143v-26.512c-35.143-1.233-62.888-12.537-85.495-32.678-21.374-20.14-32.678-45.214-32.678-76.657s10.071-55.284 28.978-70.493c18.907-16.442 49.119-28.982 89.4-39.048v-105.635c-32.678 4.933-62.888 21.374-94.333 47.885l-40.282-47.885c39.048-33.91 84.262-54.051 133.381-59.189v-40.286h35.143v39.048c36.375 1.237 66.584 12.54 89.4 32.678 23.84 21.168 35.143 46.447 35.143 77.893zM534.607 320.548v-98.033c17.676 1.235 31.445 6.373 41.515 15.002 10.068 8.84 15.002 18.907 15.002 31.447s-3.7 22.607-11.303 30.209c-8.633 7.602-22.607 15.002-45.213 21.374z" />
<glyph unicode="&#xe630;" glyph-name="users" d="M726.76 960c91.036 0 164.78-73.723 164.78-164.696 0-91.036-73.765-164.791-164.78-164.791-90.911 0-164.717 73.754-164.696 164.791 0 90.953 73.796 164.696 164.696 164.696zM414.713 911.278c67.147 0 121.627-54.406 121.627-121.553 0-67.105-54.479-121.511-121.627-121.511-67.095 0-121.522 54.406-121.522 121.511 0 67.147 54.427 121.553 121.522 121.553zM179.976 880.352c48.323 0 87.471-39.168 87.471-87.502 0-48.313-39.147-87.481-87.471-87.481s-87.502 39.168-87.502 87.481c0 48.313 39.179 87.502 87.502 87.502zM965.871-64h-468.406v219.574h-251.978v180.993h-187.358v233.259h0.189c2.297 66.707 56.944 120.075 124.175 120.075 56.325 0 103.809-37.428 119.131-88.782 30.789 28.22 71.657 45.597 116.666 45.597 71.028 0 131.967-42.818 158.551-104.030 41.297 36.473 95.378 58.8 154.797 58.8 126.66 0 229.536-100.611 233.815-226.139h0.43l-0.010-439.347z" />
<glyph unicode="&#xe631;" glyph-name="arrow-up" d="M562.694 718.856l440.291-440.311c28.022-28.009 28.022-73.406 0-101.401-27.997-27.997-73.406-27.997-101.401 0l-389.583 389.595-389.581-389.595c-28.011-27.997-73.415-27.997-101.411 0-28.009 27.997-28.009 73.406 0 101.415l440.298 440.311c14.005 13.992 32.342 20.983 50.694 20.983 18.345 0 36.695-7.005 50.694-20.997z" />
<glyph unicode="&#xe632;" glyph-name="newspaper" d="M896 704v128h-896v-704c0-35.346 28.654-64 64-64h864c53.024 0 96 42.978 96 96v544h-128zM832 128h-768v640h768v-640zM128 640h640v-64h-640v64zM512 512h256v-64h-256v64zM512 384h256v-64h-256v64zM512 256h192v-64h-192v64zM128 512h320v-320h-320v320z" />
<glyph unicode="&#xe633;" glyph-name="operator" d="M954.423 18.283c-9.634 183.014-174.119 258.723-174.119 258.723-39.299 18.375-110.549 54.346-157.263 78.124 59.851 65.479 77.528 172.238 80.28 187.429 12.49 68.735 6.204 153.811 6.204 153.811-11.421 165.438-178.452 168.037-195.944 167.863-0.965 0-1.593-0.010-1.593-0.010s-0.534 0.010-1.325 0c-15.859 0.206-184.729-1.469-196.212-167.853 0 0-6.286-85.066 6.204-153.811 0.812-4.427 2.928-16.762 6.944-33.442 31.461-41.301 80.033-61.556 119.897-71.468 5.013 4.869 11.843 7.899 19.413 7.899h72.659c15.377 0 27.825-12.459 27.825-27.835 0-15.387-12.449-27.856-27.825-27.856h-72.659c-11.473 0-21.281 6.922-25.565 16.794-29.735 7.232-64.144 19.824-94.856 41.485 12.253-31.809 29.714-65.931 54.468-93.017-46.714-23.778-117.934-59.737-157.263-78.114 0 0-164.463-75.709-174.119-258.723 0 0-2.856-30.434 54.818-41.957 0 0 176.685-40.324 387.616-40.324 210.951 0 387.637 40.324 387.637 40.324 57.664 11.523 54.777 41.957 54.777 41.957zM257.92 483.23h17.554v206.176c0.042 0.514 0.164 1.007 0.164 1.531v30.444c0 54.274 16.752 98.266 49.795 130.763 68.345 67.246 185.088 66.331 187.059 66.055 1.387 0.102 117.154 1.767 185.806-65.427 33.268-32.561 50.144-76.757 50.144-131.39v-32.191c0-0.318 0.082-0.606 0.082-0.914v-205.045h17.554c43.2 0 78.216 35.015 78.216 78.206v75.165c0 34.747-22.689 64.164-54.058 74.344v10.426c0 66.291-21.107 120.543-62.695 161.259-81.079 79.353-210.59 77.299-215.119 77.361-5.443 0.052-135.078 1.643-216.118-77.856-41.444-40.674-62.469-94.762-62.469-160.755v-10.384c-31.409-10.178-54.12-39.616-54.12-74.384v-75.165c0.002-43.202 35.025-78.217 78.206-78.217z" />
<glyph unicode="&#xe634;" glyph-name="pencil" d="M986.553 650.96l-45.257-45.278-271.566 271.528 45.257 45.282c49.993 49.999 131.063 49.999 181.060 0l90.506-90.529c49.925-49.972 49.925-131.008 0-181.003zM352.926 107.937c-12.498-12.498-12.498-32.738 0-45.238 12.504-12.567 32.755-12.567 45.253 0l497.869 497.732-45.308 45.282-497.814-497.776zM126.623 334.187c-12.504-12.508-12.504-32.74 0-45.247 12.498-12.5 32.749-12.5 45.253 0l497.854 497.77-45.238 45.253-497.869-497.776zM714.928 741.491l-497.81-497.799c-24.997-24.949-24.934-65.508 0-90.506 25.008-25 65.502-25.116 90.565 0.068l497.81 497.706-90.565 90.531zM307.555 17.562c-15.307 15.326-22.685 34.747-25.43 54.76-6.506-1.005-13.059-1.939-19.753-1.939-34.192 0-66.306 13.365-90.495 37.554-24.189 24.25-37.502 56.32-37.502 90.508 0 6.234 0.935 12.31 1.813 18.367-20.688 2.817-39.81 11.879-54.811 26.88-1.439 1.429-1.935 3.368-3.246 4.934l-78.131-312.617 311.805 78.055c-1.374 1.251-2.929 2.188-4.25 3.499z" />
<glyph unicode="&#xe635;" glyph-name="person" d="M763.617 708.385c0 138.953-112.543 251.615-251.617 251.615-138.953 0-251.615-112.662-251.615-251.615 0-138.955 112.662-251.615 251.615-251.615 139.079 0 251.617 112.66 251.617 251.615zM323.286 702.942c0 0-7.256 71.372 44.154 125.808 36.184-36.271 144.56-125.808 333.275-125.808 0-104.066-84.654-188.714-188.714-188.714s-188.714 84.654-188.714 188.714zM80.141 263.215v-255.242c0-39.787 32.263-71.975 71.975-71.975h719.769c39.787 0 71.975 32.194 71.975 71.975v255.242c0 79.498-64.386 143.952-143.952 143.952h-127.619c-9.019 0-20.387-6.088-25.388-13.59l-125.835-177.864c-5.002-7.507-13.115-7.507-18.117 0l-125.84 177.871c-5.002 7.507-16.37 13.588-25.389 13.588h-127.626c-79.429 0-143.952-64.457-143.952-143.957z" />
<glyph unicode="&#xe636;" glyph-name="pinterest-circle" d="M512.001 960c-282.77 0-512.001-229.231-512.001-512.001 0-282.768 229.225-511.999 512.001-511.999 282.768 0 512.001 229.231 512.001 511.999-0.002 282.77-229.233 512.001-512.001 512.001zM561.645 275.882c-46.52 3.613-66.042 26.655-102.505 48.808-20.060-105.18-44.563-206.020-117.139-258.689-22.404 158.966 32.893 278.364 58.57 405.114-43.784 73.707 5.268 222.035 97.621 185.474 113.626-44.947-98.4-274.007 43.932-302.617 148.62-29.868 209.288 257.86 117.141 351.427-133.16 135.105-387.598 3.080-356.31-190.357 7.615-47.292 56.471-61.638 19.523-126.902-85.219 18.891-110.65 86.102-107.376 175.713 5.268 146.675 131.785 249.364 258.688 263.566 160.481 17.964 311.107-58.908 331.905-209.877 23.414-170.389-72.445-354.931-244.048-341.66z" />
<glyph unicode="&#xe637;" glyph-name="pinterest" d="M535.998 960c-279.463 0-420.369-200.351-420.369-367.435 0-101.161 38.298-191.146 120.431-224.695 13.483-5.504 25.56-0.199 29.481 14.709 2.705 10.327 9.132 36.359 11.994 47.21 3.942 14.751 2.401 19.92-8.461 32.773-23.684 27.94-38.823 64.11-38.823 115.346 0 148.643 111.215 281.707 289.612 281.707 157.932 0 244.719-96.516 244.719-225.407 0-169.59-75.055-312.719-186.47-312.719-61.541 0-107.588 50.89-92.826 113.301 17.676 74.51 51.907 154.934 51.907 208.706 0 48.143-25.822 88.307-79.312 88.307-62.904 0-113.427-65.075-113.427-152.239 0-55.524 18.756-93.078 18.756-93.078s-64.383-272.743-75.643-320.508c-22.488-95.111-3.376-211.726-1.761-223.499 0.933-6.982 9.897-8.639 13.965-3.376 5.819 7.58 80.727 100.060 106.193 192.477 7.203 26.168 41.349 161.664 41.349 161.664 20.444-38.969 80.172-73.305 143.695-73.305 189.070 0 317.363 172.369 317.363 403.112 0.010 174.465-147.783 336.947-372.373 336.947z" />
<glyph unicode="&#xe638;" glyph-name="play" d="M512.001 960c-282.77 0-512.001-229.231-512.001-512.001 0-282.768 229.231-511.999 512.001-511.999 282.768 0 512.001 229.231 512.001 511.999-0.002 282.77-229.233 512.001-512.001 512.001zM512.001 32c-229.751 0-416.001 186.25-416.001 415.999 0 229.751 186.25 416.001 416.001 416.001 229.749 0 416.001-186.25 416.001-416.001-0.002-229.749-186.252-415.999-416.001-415.999zM384 672l384-224.001-384-223.999v448z" />
<glyph unicode="&#xe639;" glyph-name="quotes" d="M224.78 543.906c123.591 0 223.781-100.192 223.781-223.781s-100.19-223.781-223.781-223.781-223.781 100.192-223.781 223.781l-0.999 31.969c0 247.183 200.38 447.563 447.563 447.563v-127.875c-85.391 0-165.672-33.254-226.053-93.635-11.623-11.625-22.23-23.993-31.799-36.984 11.427 1.798 23.137 2.743 35.070 2.743zM800.219 543.906c123.589 0 223.781-100.192 223.781-223.781s-100.192-223.781-223.781-223.781-223.781 100.192-223.781 223.781l-0.999 31.969c0 247.183 200.378 447.563 447.563 447.563v-127.875c-85.389 0-165.674-33.254-226.053-93.635-11.625-11.625-22.232-23.993-31.801-36.984 11.427 1.798 23.137 2.743 35.072 2.743z" />
<glyph unicode="&#xe63a;" glyph-name="rectangular" d="M-67.103 860.186h1158.205v-195.115h-1158.205v195.115zM-67.103 547.923h1158.205v-195.115h-1158.205v195.115zM-67.103 230.932h1158.205v-195.115h-1158.205v195.115z" />
<glyph unicode="&#xe63b;" glyph-name="quotes-alt" d="M971.489 899.931h-319.266c-28.986 0-52.511-23.525-52.511-52.511v-319.266c0-28.987 23.525-52.511 52.511-52.511h152.807c-1.995-83.598-21.424-150.496-58.182-200.802-28.986-39.698-72.884-72.57-131.592-98.51-26.991-11.867-38.648-43.794-26.045-70.471l37.808-79.817c12.183-25.624 42.324-36.863 68.369-25.624 69.524 30.036 128.233 68.054 176.121 114.264 58.393 56.397 98.405 120.040 120.040 191.035s32.452 167.825 32.452 290.7v251.002c0 28.985-23.526 52.511-52.511 52.511zM111.361 0.629c68.684 29.931 127.076 67.948 175.281 114.054 58.917 56.397 99.141 119.83 120.775 190.299s32.451 167.615 32.451 291.435v251.002c0 28.986-23.524 52.511-52.511 52.511h-319.266c-28.986 0-52.511-23.525-52.511-52.511v-319.266c0-28.987 23.525-52.511 52.511-52.511h152.807c-1.995-83.598-21.424-150.496-58.182-200.802-28.986-39.698-72.885-72.57-131.592-98.51-26.991-11.867-38.648-43.794-26.045-70.471l37.703-79.606c12.184-25.624 42.535-36.968 68.58-25.624z" />
<glyph unicode="&#xe63c;" glyph-name="user-circle" d="M512 960c-281.6 0-512-230.4-512-512s230.4-512 512-512 512 230.4 512 512-230.4 512-512 512zM512 806.4c87.040 0 153.6-66.56 153.6-153.6s-66.56-153.6-153.6-153.6c-87.040 0-153.6 66.56-153.6 153.6s66.56 153.6 153.6 153.6zM512 79.36c-128 0-240.64 66.558-307.2 163.84 0 102.4 204.8 158.72 307.2 158.72s307.2-56.32 307.2-158.72c-66.56-97.28-179.2-163.84-307.2-163.84z" />
<glyph unicode="&#xe63d;" glyph-name="delete-fill-alt" d="M170.667 49.778c0-62.578 51.2-113.778 113.778-113.778h455.111c62.578 0 113.778 51.2 113.778 113.778v682.667h-682.667v-682.667zM910.222 903.111h-199.111l-56.889 56.889h-284.444l-56.889-56.889h-199.111v-113.778h796.444v113.778z" />
<glyph unicode="&#xe63e;" glyph-name="sales" d="M85.099 926.297v-722.922c0-11.796 6.179-23.031 16.29-28.647l389.827-233.672c5.616-3.37 11.235-5.055 17.412-5.055 6.179 0 12.357 1.685 17.975 5.055l396.567 248.276c10.111 6.179 15.727 16.851 15.727 28.647v708.319c0 18.536-15.166 33.703-33.703 33.703h-786.394c-18.536 0-33.703-15.166-33.703-33.703zM152.505 892.595h718.991v-656.078l-363.428-227.493-355.563 213.449v670.122zM480.545 695.434c0 69.652-56.733 126.385-126.385 126.385s-125.824-57.295-125.824-126.385 56.733-126.385 126.385-126.385 125.824 56.733 125.824 126.385zM295.741 695.434c0 32.579 26.401 58.98 58.98 58.98s58.419-26.962 58.419-58.98-26.401-58.98-58.419-58.98-58.98 26.401-58.98 58.98zM526.043 333.691c0-69.652 56.733-126.385 126.385-126.385s126.385 56.733 126.385 126.385-57.295 125.824-126.385 125.824-126.385-56.733-126.385-125.824zM710.845 333.691c0-32.579-26.401-58.98-58.98-58.98s-58.98 26.401-58.98 58.98c0 32.579 26.962 58.419 59.541 58.419 32.581 0 58.419-26.401 58.419-58.419zM707.474 787.555c-14.605 11.235-35.949 8.426-47.184-6.179l-351.63-462.851c-11.235-14.605-8.426-35.949 6.179-47.184 6.179-4.494 13.481-6.741 20.222-6.741 10.111 0 20.222 4.494 26.962 13.481l352.193 462.288c11.233 14.605 8.424 35.951-6.743 47.186z" />
<glyph unicode="&#xe63f;" glyph-name="sales-alt" d="M629.593 455.576c-30.712 0-47.452-36.282-47.452-82.106-0.563-46.306 17.286-81.489 47.452-81.489 32.416 0 46.886 34.62 46.886 82.601-0.020 44.132-12.826 80.994-46.886 80.994zM439.731 524.803c0 44.147-12.86 80.997-46.911 80.997-30.678 0-46.911-36.296-46.911-82.098-1.118-46.314 16.219-81.509 46.911-81.509 32.393 0 46.911 34.615 46.911 82.61zM1023.966 415.199l-83.438 94.89 50.661 102.57-101.955 50.285 7.979 123.869-126.466 8.13-38.259 113.040-109.368-37.055-78.315 89.073-92.415-81.259-111.692 55.169-53.369-108.028-114.107 7.293-7.529-117.239-120.345-40.756 40.355-119.068-85.668-75.317 74.856-85.139-55.462-112.324 114.955-56.742-7.558-117.444 112.708-7.245 38.603-113.894 119.677 40.514 81.381-92.523 87.548 77.018 103.167-50.936 53.738 108.87 127.18-8.198 7.788 121.921 106.652 36.108-37.271 109.966 95.971 84.45zM306.836 522.018c0 72.566 39.635 113.37 87.665 113.37 50.806 0 84.302-39.123 84.302-108.367 0-76.486-40.19-114.44-87.084-114.44-45.247 0.020-84.328 36.29-84.883 109.436zM419.595 260.139h-31.25l213.303 375.269h31.292l-213.346-375.269zM628.464 262.358c-45.228 0-84.342 36.282-84.874 108.87 0 73.2 39.647 113.956 87.656 113.956 50.848 0 83.782-39.072 83.782-108.299 0.003-76.557-40.173-114.528-86.564-114.528z" />
<glyph unicode="&#xe640;" glyph-name="shop-label" d="M732.042 668.024c8.572-8.572 22.478-8.572 31.038 0l254.488 254.498c8.572 8.572 8.572 22.466 0 31.050-8.56 8.572-22.466 8.572-31.038 0l-254.488-254.498c-8.582-8.572-8.582-22.478 0-31.050zM951.969 475.536l-27.911 306.894-76.619-76.619c4.456-28.448-4.225-58.565-26.144-80.482-36.427-36.427-95.498-36.439-131.925 0-36.427 36.427-36.427 95.508 0 131.935 21.917 21.917 52.013 30.588 80.451 26.144l76.641 76.641-306.906 27.912c-12.072 1.086-24.014-3.228-32.597-11.809l-494.992-494.992c-15.947-15.959-15.959-41.817 0-57.764l110.105-110.116 54.329 54.329 155.214-155.214-54.317-54.317 110.105-110.105c15.959-15.959 41.805-15.959 57.752 0l495.025 494.992c8.552 8.58 12.864 20.522 11.789 32.572z" />
<glyph unicode="&#xe641;" glyph-name="dots" d="M512 704c70.4 0 128 57.6 128 128s-57.6 128-128 128-128-57.6-128-128 57.6-128 128-128zM512 576c-70.4 0-128-57.6-128-128s57.6-128 128-128 128 57.6 128 128-57.6 128-128 128zM512 192c-70.4 0-128-57.6-128-128s57.6-128 128-128 128 57.6 128 128-57.6 128-128 128z" />
<glyph unicode="&#xe642;" glyph-name="skype" d="M975.308 382.060c2.812 20.8 4.43 41.946 4.43 63.472 0 258.306-210.54 467.744-470.204 467.744-25.808 0-51.11-2.12-75.732-6.16-44.144 28.768-96.684 45.534-153.224 45.534-155.046 0-280.578-125.616-280.578-280.612 0-56.396 16.598-108.788 45.18-152.778-3.85-24.034-5.818-48.646-5.818-73.718 0-258.352 210.434-467.764 470.17-467.764 29.314 0 57.854 2.858 85.592 7.87 43.098-26.738 93.868-42.296 148.29-42.296 155.008-0.006 280.586 125.642 280.586 280.622-0.008 58.586-17.922 113.056-48.692 158.086zM553.48 100.806c-149.41-7.788-219.328 25.274-283.378 85.382-71.53 67.13-42.796 143.708 15.48 147.602 58.244 3.884 93.214-66.030 124.3-85.472 31.048-19.376 149.188-63.52 211.586 7.816 67.954 77.656-45.188 117.84-128.12 130.004-118.406 17.532-267.9 81.584-256.27 207.814 11.632 126.148 107.164 190.828 207.7 199.952 128.154 11.634 211.584-19.414 277.572-75.72 76.296-65.058 35.016-137.788-13.598-143.64-48.426-5.818-102.808 107.008-209.584 108.704-110.054 1.728-184.434-114.522-48.572-147.568 135.934-33.010 281.5-46.572 333.922-170.834 52.462-124.274-81.502-256.25-231.038-264.040z" />
<glyph unicode="&#xe643;" glyph-name="smartphone" d="M740.921 960h-457.842c-42.719 0-77.473-34.75-77.473-77.467v-869.068c0-42.714 34.753-77.467 77.47-77.467h457.842c42.719 0 77.473 34.753 77.473 77.467v869.068c0 42.717-34.75 77.467-77.47 77.467zM542.716 16.489c0-6.058-4.911-10.969-10.969-10.969h-39.497c-6.058 0-10.969 4.911-10.969 10.969v35.107c0 3.563 1.733 6.911 4.649 8.966l19.748 13.907c3.794 2.671 8.844 2.671 12.637 0l19.748-13.907c2.916-2.053 4.649-5.401 4.649-8.966v-35.107zM726.239 122.947h-428.482v719.234h428.482v-719.234z" />
<glyph unicode="&#xe644;" glyph-name="responsive" d="M922.67 881.828h-613.857c-55.948 0-101.328-45.38-101.328-101.332v-95.376h87.936v77.031c0 21.309 17.23 38.547 38.543 38.547h563.557c21.313 0 38.552-17.238 38.552-38.547v-362.446c0-21.309-17.238-38.547-38.552-38.547h-262.588v-126.444c0 0-0.372-168.027-0.436-169.473-0.71-17.777-5.862-34.269-14.239-48.815h182.468c21.309 0 38.543 17.238 38.543 38.547v49.29c0 21.311-17.234 38.547-38.543 38.547h-94.059v68.371h214.003c55.952 0 101.332 45.38 101.332 101.332v467.984c-0.002 55.952-45.38 101.33-101.332 101.33zM872.887 260.567c-17.482 0-31.62 14.176-31.62 31.644 0 17.449 14.136 31.581 31.62 31.581 17.427 0 31.603-14.132 31.603-31.581 0-17.471-14.176-31.644-31.603-31.644zM543.459 476.164l-4.642 8.412-31.611-31.64v-286.966h-178.801v-61.576c5.152 3.604 11.043 6.195 17.812 6.195 17.444 0 31.616-14.141 31.616-31.581 0-17.471-14.172-31.644-31.616-31.644-6.769 0-12.66 2.589-17.812 6.191v-9.019c0-10.734-2.221-20.871-5.79-30.365h205.227c30.562 0 55.383 24.816 55.383 55.378v383.719h-1.078c-16.091-0.002-30.943 8.782-38.687 22.895zM185.233 546.527h220.575l35.522 35.544-8.66 4.784c-15.582 8.719-24.402 25.791-22.454 43.226 0.145 1.176 0.642 2.191 0.876 3.332h-246.5c-30.567 0-55.383-24.812-55.383-55.383v-77.526h76.023v46.022zM242.151 454.111h-207.613c-19.087 0-34.538-15.453-34.538-34.54v-369.716c0-19.087 15.451-34.538 34.538-34.538h207.613c19.092 0 34.549 15.451 34.549 34.538v369.716c0.002 19.087-15.457 34.54-34.549 34.54zM138.368 35.012c-14.675 0-26.597 11.913-26.597 26.626 0 14.645 11.919 26.527 26.597 26.527 14.647 0 26.566-11.882 26.566-26.527 0-14.715-11.919-26.626-26.566-26.626zM220.577 142.84h-164.424v242.561h164.426v-242.561zM642.344 685.626c-1.827 1.886-4.313 2.863-6.877 2.863-0.946 0-1.853-0.099-2.76-0.368l-181.22-53.326c-3.799-1.078-6.563-4.342-6.966-8.283-0.436-3.873 1.549-7.676 4.984-9.562l48.609-26.831-128.932-129.007c-13.477-13.462-13.477-35.316 0-48.778 6.725-6.706 15.549-10.068 24.367-10.068 8.822 0 17.642 3.363 24.376 10.101l128.937 129.007 26.794-48.585c1.715-3.093 4.979-5.050 8.489-5.050 0.368 0 0.736 0 1.108 0.064 3.902 0.407 7.205 3.161 8.279 6.905l53.264 181.292c1.045 3.463 0.035 7.17-2.451 9.626z" />
<glyph unicode="&#xe645;" glyph-name="speech" d="M511.994 927.997c-282.314 0-511.994-189.565-511.994-422.495 0-126.12 68.624-245.694 185.252-325.62-15.838-60.068-49.688-95.437-49.84-95.566-17.533-17.498-23.938-43.996-16.75-69.196 0.561-1.987 1.274-3.927 2.127-5.868 10.812-25.084 35.685-41.249 63.34-41.249 112.152 0 204.749 60.745 267.025 118.008 20.969-1.999 41.342-3.004 60.851-3.004 282.314 0 511.994 189.495 511.994 422.495-0.023 232.93-229.692 422.495-512.006 422.495zM511.994 180.63c-22.559 0-46.754 1.625-71.873 4.862-15.102 1.812-30.285-3.168-41.097-13.886-36.562-36.293-88.973-77.928-150.747-96.372 16.785 30.192 33.499 71.066 40.244 121.444 2.595 19.368-6.686 38.444-23.646 48.449-105.875 62.3-166.632 157.235-166.632 260.374 0 179.127 185.591 324.872 413.752 324.872 228.149 0 413.752-145.745 413.752-324.872 0-179.197-185.591-324.872-413.752-324.872zM728.84 596.871h-417.597c-13.559 0-24.569-10.94-24.569-24.441 0-13.43 10.999-24.371 24.569-24.371h417.609c13.559 0 24.558 10.94 24.558 24.371-0.012 13.5-10.999 24.441-24.569 24.441zM728.84 453.932h-417.597c-13.559 0-24.569-10.94-24.569-24.429 0-13.43 10.999-24.382 24.569-24.382h417.609c13.559 0 24.558 10.952 24.558 24.382-0.012 13.5-10.999 24.429-24.569 24.429z" />
<glyph unicode="&#xe646;" glyph-name="star" d="M989.533 614.913c-14.345 12.615-32.002 20.748-51.066 23.518l-233.417 33.917-104.386 211.51c-8.527 17.275-21.719 31.558-38.148 41.301-15.243 9.037-32.71 13.816-50.517 13.816s-35.276-4.777-50.517-13.816c-16.43-9.743-29.62-24.025-38.147-41.301l-104.386-211.511-233.415-33.915c-19.066-2.77-36.725-10.903-51.068-23.518-13.306-11.702-23.246-26.839-28.749-43.776-5.502-16.935-6.357-35.024-2.473-52.313 4.189-18.635 13.695-35.596 27.492-49.043l168.901-164.639-39.873-232.471c-4.94-28.807 2.99-58.095 21.758-80.358 18.908-22.428 46.495-35.29 75.688-35.29 15.899 0 31.812 3.947 46.017 11.416l208.773 109.758 208.773-109.758c14.205-7.469 30.116-11.416 46.015-11.416 29.193 0 56.78 12.862 75.69 35.29 18.768 22.263 26.698 51.549 21.758 80.358l-39.871 232.471 168.901 164.639c13.795 13.449 23.302 30.407 27.491 49.043 3.886 17.289 3.031 35.378-2.471 52.313-5.505 16.935-15.447 32.072-28.752 43.776zM942.409 521.952l-186.531-181.827c-6.132-5.978-8.932-14.59-7.483-23.030l44.034-256.741c2.884-16.819-10.479-30.477-25.64-30.477-4.002 0-8.126 0.952-12.112 3.048l-230.567 121.215c-3.791 1.993-7.95 2.99-12.108 2.99s-8.318-0.997-12.108-2.99l-230.567-121.215c-3.985-2.095-8.114-3.048-12.114-3.048-15.163 0-28.525 13.658-25.64 30.477l44.034 256.741c1.449 8.44-1.35 17.052-7.483 23.030l-186.536 181.827c-15.443 15.052-6.922 41.279 14.42 44.381l257.784 37.458c8.474 1.231 15.8 6.554 19.591 14.234l115.285 233.59c4.772 9.67 14.052 14.505 23.333 14.505 9.282 0 18.561-4.837 23.331-14.505l115.285-233.59c3.791-7.678 11.115-13.003 19.591-14.234l257.782-37.458c21.343-3.102 29.863-29.329 14.42-44.381zM766.788-43.826c-16.037 0-32.084 3.981-46.41 11.515l-208.377 109.551-208.377-109.552c-14.328-7.534-30.376-11.515-46.413-11.515-29.445 0-57.268 12.972-76.339 35.592-18.93 22.453-26.928 51.995-21.945 81.050l39.796 232.029-168.581 164.328c-13.914 13.562-23.501 30.667-27.727 49.464-3.918 17.438-3.056 35.682 2.493 52.762 5.551 17.079 15.578 32.348 28.997 44.15 14.467 12.724 32.279 20.926 51.508 23.72l232.973 33.853 104.189 211.11c8.6 17.425 21.904 31.829 38.477 41.657 15.374 9.115 32.99 13.933 50.951 13.933 17.959 0 35.577-4.818 50.951-13.933 16.571-9.826 29.877-24.232 38.477-41.657l104.189-211.11 232.975-33.853c19.227-2.792 37.036-10.995 51.505-23.72 13.421-11.802 23.448-27.070 28.997-44.152 5.551-17.081 6.413-35.325 2.493-52.762-4.224-18.797-13.812-35.9-27.729-49.464l-168.581-164.326 39.796-232.029c4.983-29.055-3.015-58.597-21.947-81.050-19.072-22.618-46.898-35.591-76.341-35.591zM511.999 79.158l0.396-0.207 208.772-109.758c14.083-7.405 29.86-11.318 45.619-11.318 28.941 0 56.292 12.753 75.040 34.987 18.605 22.071 26.467 51.107 21.569 79.666l-39.946 232.914 169.222 164.95c13.676 13.333 23.101 30.145 27.252 48.619 3.854 17.139 3.007 35.074-2.449 51.864s-15.311 31.798-28.502 43.4c-14.221 12.506-31.727 20.569-50.629 23.314l-233.859 33.98-0.197 0.401-104.384 211.513c-8.454 17.129-21.532 31.286-37.818 40.946-15.112 8.961-32.429 13.697-50.083 13.697s-34.973-4.736-50.083-13.697c-16.287-9.658-29.365-23.817-37.818-40.946l-104.585-211.911-233.857-33.982c-18.901-2.747-36.409-10.807-50.629-23.314-13.19-11.602-23.047-26.608-28.502-43.4-5.456-16.79-6.303-34.723-2.451-51.864 4.153-18.476 13.578-35.288 27.256-48.621l169.22-164.95-0.075-0.442-39.873-232.471c-4.898-28.559 2.964-57.595 21.571-79.666 18.746-22.234 46.095-34.987 75.038-34.987 15.761 0 31.536 3.915 45.621 11.318l209.166 109.966zM766.788 29.029c-4.331 0-8.539 1.058-12.506 3.146l-230.567 121.215c-7.192 3.784-16.227 3.784-23.426 0l-230.567-121.215c-3.968-2.088-8.177-3.146-12.508-3.146-7.92 0-15.442 3.534-20.639 9.697-5.131 6.085-7.204 13.818-5.84 21.775l44.034 256.741c1.401 8.165-1.306 16.493-7.24 22.276l-186.534 181.825c-7.377 7.19-9.983 17.744-6.799 27.543s11.494 16.806 21.691 18.287l257.784 37.458c8.199 1.192 15.283 6.34 18.95 13.768l115.285 233.59c4.559 9.239 13.79 14.979 24.094 14.979 10.302 0 19.535-5.74 24.093-14.979l115.285-233.59c3.667-7.43 10.751-12.578 18.952-13.768l257.782-37.458c10.197-1.481 18.51-8.489 21.693-18.288 3.184-9.797 0.578-20.351-6.801-27.542l-186.534-181.827c-5.933-5.782-8.639-14.11-7.238-22.276l44.034-256.741c1.364-7.956-0.711-15.688-5.842-21.773-5.195-6.163-12.717-9.697-20.637-9.697zM511.999 157.982c4.34 0 8.665-1.068 12.505-3.087l230.567-121.215c3.723-1.956 7.665-2.949 11.717-2.949 7.416 0 14.467 3.315 19.338 9.095 4.803 5.695 6.743 12.935 5.464 20.387l-44.034 256.741c-1.495 8.719 1.393 17.608 7.729 23.783l186.533 181.825c6.91 6.736 9.35 16.622 6.369 25.798-2.983 9.178-10.768 15.743-20.321 17.132l-257.782 37.458c-8.751 1.272-16.316 6.767-20.231 14.698l-115.285 233.59c-4.272 8.654-12.92 14.030-22.569 14.030-9.651 0-18.299-5.376-22.569-14.030l-115.285-233.59c-3.915-7.932-11.477-13.428-20.231-14.698l-257.784-37.46c-9.551-1.388-17.336-7.952-20.317-17.13s-0.541-19.064 6.369-25.8l186.533-181.825c6.335-6.175 9.224-15.066 7.728-23.783l-44.034-256.741c-1.277-7.452 0.663-14.693 5.464-20.389 4.872-5.777 11.921-9.093 19.338-9.093 4.054 0 7.996 0.993 11.717 2.949l230.567 121.215c3.843 2.020 8.166 3.088 12.505 3.088z" />
<glyph unicode="&#xe647;" glyph-name="stumbleupon" d="M566.21 547.399l78.573-33.133 96.123 33.133v66.255c0 126.42-102.475 228.895-228.895 228.895s-228.895-102.475-228.895-228.895v-325.269c0-29.941-24.269-54.21-54.21-54.21s-54.21 24.258-54.21 54.21v144.566h-174.696v-150.594c0-126.42 102.475-228.895 228.895-228.895s228.895 102.475 228.895 228.895v331.297c0 29.941 24.269 54.21 54.21 54.21s54.21-24.269 54.21-54.21v-66.255zM849.315 426.923v-144.556c0-29.931-24.269-54.21-54.22-54.21-29.931 0-54.21 24.269-54.21 54.21v147.559l-96.123-33.133-78.573 33.133v-147.58c0-126.42 102.486-228.895 228.895-228.895s228.895 102.475 228.895 228.895v144.577h-174.664z" />
<glyph unicode="&#xe648;" glyph-name="telephone" d="M1001.042 150.739l-158.141 158.158c-31.499 31.372-83.661 30.419-116.257-2.189l-79.672-79.654c-5.034 2.774-10.244 5.672-15.721 8.746-50.312 27.877-119.173 66.086-191.634 138.601-72.676 72.667-110.921 141.634-138.883 191.978-2.951 5.334-5.778 10.476-8.57 15.36l79.76 79.713c32.646 32.655 33.546 84.803 2.121 116.266l-158.141 158.176c-31.425 31.419-83.611 30.466-116.257-2.189l-44.569-44.825 1.218-1.209c-14.945-19.069-27.433-41.063-36.726-64.78-8.567-22.576-13.9-44.119-16.339-65.707-20.881-173.112 58.226-331.323 272.912-546.013 296.762-296.741 535.913-274.324 546.23-273.23 22.47 2.686 44.005 8.055 65.889 16.554 23.511 9.185 45.49 21.655 64.548 36.568l0.974-0.865 45.152 44.213c32.578 32.649 33.517 84.814 2.106 116.328z" />
<glyph unicode="&#xe649;" glyph-name="textlines" d="M921.599 960h-819.199c-56.319 0-101.887-46.080-101.887-102.399l-0.513-921.601 204.842 204.844h716.757c56.319 0 102.399 46.080 102.399 102.314v614.443c0.002 56.319-46.078 102.399-102.399 102.399zM204.842 601.601h614.315v-102.399h-614.315v102.399zM614.4 345.6h-409.602v102.399h409.6v-102.399zM819.156 652.843h-614.315v102.314h614.315v-102.314z" />
<glyph unicode="&#xe64a;" glyph-name="truck" d="M259.48 134.991h124.438v-28.599h-124.438v28.599zM394.799 134.991h258.603v-28.599h-258.603v28.599zM162.932 231.711c-47.721 0-86.37-38.548-86.37-86.343 0-47.878 38.649-86.43 86.37-86.43 47.666 0 86.35 38.626 86.35 86.43 0.039 47.793-38.647 86.343-86.35 86.343zM162.932 107.511c-20.907 0-37.89 16.869-37.89 37.855 0 20.822 16.985 37.842 37.89 37.842 20.888 0 37.869-17.020 37.869-37.842 0.002-21.068-17.061-37.855-37.869-37.855zM749.291 231.711c-47.721 0-86.424-38.548-86.424-86.343 0-47.878 38.703-86.43 86.424-86.43 47.723 0 86.469 38.626 86.469 86.43 0 47.793-38.746 86.343-86.469 86.343zM749.291 107.511c-20.825 0-37.888 16.869-37.888 37.855 0 20.822 17.063 37.842 37.888 37.842 20.911 0 37.968-17.020 37.968-37.842-0.076-21.068-17.059-37.855-37.968-37.855zM375.854 650.791c-92.286-23.519-131.954-80.87-131.954-80.87h131.954v80.87zM43.939 353.114c-66.105-100.574-38.007-207.911-38.007-207.911h59.731c0 53.63 43.504 97.002 97.095 97.002 53.649 0 97.019-43.293 97.019-97.002h123.519l0.116 393.669c-65.872 0-117.266 0-136.248 0-75.452 0-162.589-120.687-203.225-185.758zM340.956 378.607h-234.744c0 0 84.561 125.29 131.527 125.29h103.215l0.002-125.29zM508.566 597.553c0 23.783 3.34 46.749 9.033 68.707h-123.344l-0.134-494.589v-26.269h259.34c0 53.589 43.452 97.037 97.002 97.037 53.515 0 97.035-43.37 97.035-97.037h95.172v118.72h30.897v133.258c-49.397-46.749-115.85-75.664-189.1-75.664-152.069-0.155-275.902 123.658-275.902 275.838zM900.423 264.119h15.080v-60.074h-15.080v60.074zM783.603 356.578c132.478 0 240.397 107.797 240.397 240.24 0 132.517-107.88 240.242-240.397 240.242-132.206 0-240.125-107.684-240.125-240.242 0-132.441 107.919-240.24 240.125-240.24zM783.603 800.025c112.153 0 203.32-91.205 203.32-203.246 0-112.037-91.169-203.283-203.32-203.283-111.998 0-203.089 91.167-203.089 203.283-0.078 112.077 91.089 203.246 203.089 203.246zM770.445 565.221c3.73-3.613 8.468-5.439 13.054-5.439 4.781 0 9.485 1.826 13.176 5.439 0 0 0 0 0 0.041l110.952 110.95c7.186 7.246 7.186 18.906 0 26.076-7.31 7.228-18.889 7.228-26.078 0l-97.935-97.889-97.852 97.889c-7.267 7.228-18.926 7.228-26.078 0-7.188-7.246-7.188-18.864 0-26.076l110.76-110.991z" />
<glyph unicode="&#xe64b;" glyph-name="tumblr" d="M761.244 139.972c-15.044-3.3-180.042-73.818-180.042 97.963-0.313 64.824-0.065 129.647-0.065 194.471 0 28.589 0 63.141 0 96.551 69.094 0 131.847 0 193.382 0v166.766c-65.007 0-126.541 0-192.346 0 0 86.683 0 175.534 0 264.277-30.347 0-164.426 0-164.426 0s-1.143-29.106-11.798-72.006c-27.791-98.481-103.258-191.43-190.696-216.341 0-50.287 0-94.631 0-144.918 39.362 0 71.995 0 115.736 0l-0.086-310.25c0-383.086 436.726-276.873 477.836-233.369l-47.493 156.856z" />
<glyph unicode="&#xe64c;" glyph-name="twitter" d="M430.764 243.034c22.469-23.173 49.738-34.751 81.783-34.751h230.84c32.005 0 59.517-11.832 82.405-35.476 22.919-23.603 34.342-51.902 34.342-84.937s-11.423-61.436-34.342-84.977c-22.888-23.592-50.309-35.393-82.384-35.393h-230.758c-96.125 0-178.265 35.169-246.469 105.6-68.255 70.389-102.353 155.193-102.353 254.392v480.525c0 33.985 11.372 62.579 34.098 85.754 22.715 23.134 50.483 34.731 83.252 34.731 31.8 0 59.17-11.791 81.833-35.454 22.755-23.572 34.138-51.871 34.138-84.947v-120.371h345.923c32.137 0 59.69-11.822 82.67-35.435 23-23.592 34.433-51.921 34.433-84.987 0-33.005-11.433-61.344-34.352-84.947-22.888-23.592-50.39-35.404-82.405-35.404h-346.301v-119.351c0-33.138 11.199-61.313 33.649-84.569z" />
<glyph unicode="&#xe64d;" glyph-name="twitter-alt" d="M1022.804 765.703c-1.468 1.73-3.891 2.318-5.957 1.374-30.614-13.582-62.822-23.346-95.995-29.114 35.218 26.492 61.459 63.179 74.915 105.245 0.65 2.014-0.021 4.216-1.668 5.527-1.657 1.311-3.954 1.479-5.768 0.399-39.665-23.524-82.623-40.105-127.742-49.303-39.98 41.49-95.806 65.224-153.584 65.224-117.506 0-213.092-95.586-213.092-213.081 0-14.211 1.374-28.286 4.101-41.951-162.75 10.047-314.928 88.182-418.401 215.095-1.059 1.3-2.664 2.024-4.342 1.856-1.668-0.126-3.157-1.070-3.996-2.507-18.878-32.386-28.852-69.44-28.852-107.133 0-65.329 29.681-126.41 80.221-166.715-26.020 3.125-51.432 11.316-74.348 24.038-1.542 0.87-3.461 0.86-5.003-0.031-1.542-0.881-2.517-2.517-2.559-4.3l-0.021-2.727c0-93.824 61.826-176.206 149.787-203.558-23.168-3.734-47.206-3.482-70.835 1.028-1.741 0.325-3.566-0.273-4.761-1.615-1.185-1.342-1.584-3.22-1.038-4.919 26.377-82.329 99.666-140.065 184.974-147.26-71.16-52.135-155.272-79.603-244.146-79.603-16.371 0-32.858 0.975-49.010 2.874-2.307 0.262-4.594-1.112-5.391-3.325-0.797-2.234 0.052-4.73 2.045-5.999 96.173-61.679 207.376-94.265 321.599-94.265 373.629 0 596.894 303.497 596.894 596.904 0 8.17-0.157 16.298-0.482 24.405 40.305 29.481 74.904 65.57 102.802 107.343 1.248 1.867 1.112 4.352-0.346 6.093z" />
<glyph unicode="&#xe64e;" glyph-name="verification" d="M325.818 220.977l-244.364 244.364-81.455-81.226 325.818-326.046 698.182 698.182-81.455 81.683z" />
<glyph unicode="&#xe64f;" glyph-name="vimeo" d="M1023.515 686.040c-4.545-99.694-74.225-236.247-208.879-409.554-139.19-181.016-256.991-271.556-353.405-271.556-59.639 0-110.145 55.115-151.413 165.408-27.557 101.086-55.125 202.077-82.662 303.163-30.605 110.23-63.457 165.397-98.629 165.397-7.635 0-34.486-16.146-80.384-48.27l-48.144 62.096c50.496 44.379 100.369 88.821 149.409 133.336 67.433 58.215 118.013 88.894 151.771 91.985 79.698 7.646 128.749-46.889 147.163-163.488 19.89-125.901 33.653-204.186 41.362-234.802 22.949-104.429 48.26-156.601 75.828-156.601 21.451 0 53.691 33.917 96.593 101.603 42.871 67.781 65.851 119.331 68.941 154.682 6.117 58.479-16.874 87.787-68.941 87.787-24.552 0-49.852-5.6-75.807-16.79 50.306 164.859 146.456 244.979 288.419 240.455 105.252-3.101 154.819-71.388 148.776-204.851z" />
<glyph unicode="&#xe650;" glyph-name="vk" d="M981.584 268.342c-30.488 36.568-66.366 67.778-100.314 100.919-30.626 29.872-32.557 47.201-7.938 81.679 26.869 37.63 55.765 73.816 82.878 111.276 25.309 35.008 51.181 69.921 64.499 111.838 8.447 26.668 0.976 38.447-26.37 43.116-4.712 0.817-9.582 0.86-14.379 0.86l-162.244 0.191c-19.982 0.297-31.029-8.415-38.097-26.126-9.54-23.94-19.377-47.859-30.742-70.961-25.787-52.38-54.587-103.009-94.965-145.881-8.903-9.455-18.751-21.404-33.629-16.48-18.613 6.792-24.099 37.46-23.792 47.828l-0.159 187.267c-3.608 26.752-9.54 38.68-36.101 43.88l-168.537-0.032c-22.497 0-33.777-8.691-45.79-22.762-6.93-8.129-9.020-13.403 5.221-16.098 27.973-5.306 43.731-23.41 47.912-51.457 6.707-44.814 6.24-89.808 2.377-134.802-1.135-13.137-3.396-26.243-8.606-38.51-8.15-19.282-21.309-23.208-38.595-11.344-15.652 10.739-26.646 25.893-37.407 41.11-40.42 57.113-72.67 118.704-98.966 183.426-7.598 18.698-20.704 30.032-40.516 30.339-48.677 0.775-97.364 0.902-146.040-0.042-29.289-0.552-38.022-14.772-26.095-41.323 53.017-117.929 112.029-232.58 189.061-337.021 39.55-53.6 84.958-100.919 143.621-134.452 66.483-38.012 138.049-49.451 213.425-45.928 35.295 1.655 45.896 10.835 47.53 46.013 1.104 24.068 3.831 47.997 15.706 69.624 11.652 21.224 29.299 25.267 49.642 12.066 10.177-6.611 18.751-15.026 26.848-23.898 19.865-21.733 39.020-44.124 59.639-65.125 25.861-26.317 56.497-41.864 95.018-38.691l149.118-0.032c24.025 1.571 36.484 31.029 22.688 57.845-9.689 18.783-22.402 35.507-35.9 51.69z" />
<glyph unicode="&#xe651;" glyph-name="wordpress" d="M512.021 960c-282.334 0-512.011-229.666-512.011-511.979 0-282.334 229.687-512.021 512-512.021 282.302 0 511.968 229.687 511.968 512.021 0.011 282.302-229.655 511.979-511.957 511.979zM51.679 448.021c0 66.724 14.311 130.096 39.858 187.329l219.59-601.632c-153.547 74.629-259.447 232.092-259.447 414.303zM512.021-12.342c-45.188 0-88.802 6.629-130.043 18.758l138.108 401.333 141.524-387.65c0.915-2.288 2.032-4.373 3.277-6.341-47.848-16.833-99.261-26.1-152.866-26.1zM575.447 663.844c27.707 1.458 52.7 4.384 52.7 4.384 24.791 2.937 21.887 39.379-2.947 37.921 0 0-74.555-5.841-122.701-5.841-45.22 0-121.254 5.841-121.254 5.841-24.813 1.458-27.707-36.464-2.905-37.921 0 0 23.493-2.926 48.274-4.384l71.714-196.511-100.74-302.125-167.602 498.625c27.749 1.447 52.69 4.384 52.69 4.384 24.791 2.926 21.865 39.39-2.958 37.9 0 0-74.523-5.841-122.68-5.841-8.65 0-18.833 0.223-29.622 0.553 82.29 124.989 223.793 207.503 384.606 207.503 119.86 0 228.964-45.816 310.85-120.839-1.99 0.106-3.916 0.372-5.98 0.372-45.199 0-77.289-39.39-77.289-81.705 0-37.921 21.865-70.033 45.199-107.954 17.524-30.665 37.953-70.065 37.953-126.957 0-39.411-15.13-85.121-35.038-148.812l-45.912-153.44-166.357 494.848zM743.432 50.104l140.608 406.536c26.292 65.66 35.006 118.169 35.006 164.889 0 16.928-1.107 32.665-3.107 47.338 35.963-65.575 56.424-140.832 56.403-220.867-0.011-169.815-92.068-318.095-228.91-397.896z" />
<glyph unicode="&#xe652;" glyph-name="write" d="M659.346 60.148h-581.785v775.703h581.817v-132.196l77.529 86.442v44.343c0 43.606-35.366 78.971-78.971 78.971h-578.964c-43.606 0-78.971-35.334-78.971-78.971v-772.882c0-43.638 35.366-79.004 78.971-79.004h579.028c43.574 0 78.971 35.366 78.971 79.004v254.517l-77.593-86.474v-169.454h-0.032zM593.553 693.62c0 21.418-17.346 38.764-38.764 38.764h-373.087c-21.386 0.032-38.764-17.346-38.764-38.764 0-21.386 17.378-38.764 38.764-38.764h373.054c21.45 0 38.796 17.378 38.796 38.764zM540.135 569.888h-358.434c-21.418 0-38.764-17.378-38.764-38.764 0-21.418 17.378-38.796 38.764-38.796h288.825l69.609 77.561zM395.146 409.252h-213.444c-21.418 0-38.764-17.41-38.764-38.828 0-21.354 17.378-38.764 38.764-38.764h169.518l43.926 77.593zM142.937 207.895c0-21.418 17.378-38.764 38.764-38.764h124.148c0.481 5.547 1.283 8.593 2.501 12.761l18.661 64.8h-145.31c-21.386-0.032-38.764-17.378-38.764-38.796zM725.108 689.9l-291.774-325.28 149.126-133.735 20.905 23.374 295.269 329.16-149.061 133.735-24.464-27.254zM712.218 553.536l-177.598-197.958c-2.18-2.501-5.355-4.008-8.689-4.168-3.335-0.192-6.573 0.962-9.042 3.174l-8.785 7.888c-5.162 4.681-5.579 12.601-0.962 17.731l177.63 198.022c2.212 2.501 5.322 4.008 8.689 4.168 3.303 0.16 6.573-0.962 9.042-3.206l8.753-7.92c5.226-4.617 5.579-12.569 0.962-17.731zM763.84 647.609l8.785-7.888c5.13-4.617 5.579-12.569 0.93-17.731l-2.244-2.533-12.697-14.14-0.545-0.577c-2.18-2.501-5.322-3.976-8.689-4.136-3.335-0.192-6.573 0.93-9.042 3.206l-8.817 7.888c-2.501 2.212-3.944 5.355-4.136 8.657-0.192 3.335 0.962 6.605 3.238 9.074l15.422 17.218c4.681 5.162 12.633 5.611 17.795 0.962zM775.19 745.69l-11.222-12.505 149.094-133.735 11.254 12.569 25.33 28.248-149.061 133.703zM1023.968 742.131c-0.641 11.479-5.803 22.252-14.332 29.947l-84.486 75.797c-8.593 7.695-19.847 11.639-31.326 11.030-11.447-0.641-22.284-5.771-29.947-14.364l-49.858-55.533 149.094-133.671 49.794 55.533c7.695 8.497 11.671 19.751 11.062 31.262zM960.066 710.998l-90.322 81.024 26.067 29.049 90.258-80.991-26.003-29.081zM370.554 144.667c6.156-5.515 14.941-7.022 22.605-3.88l171.377 70.186-149.029 133.703-51.269-177.982c-2.309-7.952 0.16-16.513 6.316-22.027zM429.165 297.159l86.57-77.721-67.333-27.606-39.406 35.366 20.168 69.962z" />
<glyph unicode="&#xe653;" glyph-name="xing" d="M344.431 730.086c-7.361 13.091-18.467 27.685-41.12 27.685h-147.696c-8.896 0-16.364-3.123-20.141-9.228-3.895-6.31-3.284-14.433 0.848-22.652l99.848-172.859c0.182-0.333 0.182-0.537 0-0.848l-156.903-276.914c-4.11-8.155-3.895-16.343 0-22.652 3.756-6.074 10.398-10.065 19.294-10.065h147.696c22.084 0 32.718 14.905 40.272 28.511 0 0 153.458 271.409 159.435 281.947-0.612 0.987-101.533 177.076-101.533 177.076zM944.583 927.776c4.099 8.155 4.206 16.482 0.29 22.792-3.756 6.074-10.741 9.432-19.626 9.432h-149.198c-22.041 0-31.612-13.896-39.542-28.125 0 0-318.152-564.215-328.625-582.758 0.537-1.019 209.837-384.993 209.837-384.993 7.329-13.102 18.618-28.125 41.259-28.125h147.524c8.885 0 15.849 3.348 19.594 9.432 3.927 6.31 3.809 14.626-0.29 22.824l-208.206 380.389c-0.215 0.29-0.215 0.665 0 0.976l326.983 578.154z" />
<glyph unicode="&#xe654;" glyph-name="youtube" d="M1006.305 690.055c-12.536 54.458-57.080 94.636-110.703 100.629-126.981 14.175-255.506 14.249-383.438 14.175-127.954 0.074-256.499 0-383.481-14.175-53.592-5.993-98.103-46.171-110.64-100.629-17.843-77.554-18.044-162.212-18.044-242.060s0-164.495 17.843-242.039c12.515-54.448 57.037-94.626 110.661-100.629 126.971-14.185 255.506-14.259 383.46-14.185 127.975-0.074 256.478 0 383.438 14.185 53.592 5.993 98.145 46.171 110.682 100.629 17.853 77.554 17.917 162.202 17.917 242.039 0 79.848 0.148 164.506-17.695 242.060zM379.855 289.059c0 113.272 0 225.359 0 338.641 108.526-56.625 216.332-112.87 325.545-169.844-108.874-56.467-216.734-112.373-325.545-168.797z" />
<glyph unicode="&#xe655;" glyph-name="youtube-alt" d="M929.253 441.58c-10.581 45.973-48.187 79.885-93.448 84.933-107.158 11.97-215.67 12.027-323.653 11.97-108.027 0.056-216.517 0-323.709-11.97-45.239-5.059-82.822-38.972-93.392-84.933-15.065-65.465-15.245-136.926-15.245-204.332s0-138.857 15.065-204.321c10.57-45.962 48.153-79.874 93.414-84.933 107.169-11.982 215.659-12.027 323.675-11.982 108.027-0.056 216.495 0 323.698 11.982 45.239 5.059 82.844 38.972 93.414 84.933 15.053 65.465 15.132 136.914 15.132 204.321-0.011 67.418 0.102 138.868-14.952 204.332zM326.363 390.841h-62.562v-332.438h-58.113v332.438h-61.422v54.454h182.097v-54.454zM484.203 58.392h-52.275v31.451c-20.768-23.805-40.485-35.414-59.694-35.414-16.838 0-28.424 6.821-33.653 21.422-2.846 8.718-4.607 22.518-4.607 42.868v227.957h52.229v-212.249c0-12.241 0-18.599 0.474-20.316 1.254-8.108 5.217-12.219 12.219-12.219 10.48 0 21.434 8.074 33.020 24.46v220.323h52.275l0.011-288.283zM682.652 144.917c0-26.662-1.796-45.871-5.285-58.090-6.979-21.445-20.948-32.399-41.727-32.399-18.588 0-36.521 10.322-53.991 31.891v-27.938h-52.229v386.915h52.229v-126.355c16.871 20.768 34.782 31.27 53.991 31.27 20.779 0 34.759-10.943 41.727-32.523 3.512-11.598 5.285-30.66 5.285-57.955v-114.814zM879.791 193.014h-104.47v-51.1c0-26.685 8.729-40.010 26.685-40.010 12.863 0 20.35 6.99 23.331 20.948 0.486 2.835 1.174 14.444 1.174 35.392h53.291v-7.623c0-16.838-0.644-28.435-1.118-33.653-1.75-11.564-5.861-22.055-12.196-31.292-14.466-20.937-35.9-31.259-63.183-31.259-27.329 0-48.13 9.836-63.229 29.519-11.078 14.432-16.77 37.153-16.77 67.791v100.969c0 30.818 5.048 53.359 16.149 67.926 15.087 19.729 35.877 29.553 62.562 29.553 26.211 0 46.989-9.825 61.625-29.553 10.943-14.568 16.171-37.108 16.171-67.926v-59.683h-0.023zM801.543 303.175c-17.459 0-26.211-13.337-26.211-39.988v-26.674h52.229v26.674c-0.011 26.651-8.741 39.988-26.019 39.988zM607.69 303.175c-8.605 0-17.323-4.065-26.053-12.704v-175.705c8.718-8.741 17.447-12.874 26.053-12.874 15.065 0 22.721 12.874 22.721 38.904v123.047c0 25.996-7.657 39.333-22.721 39.333zM636.87 565.056c19.254 0 39.288 11.699 60.304 35.776v-31.778h52.794v291.344h-52.794v-222.672c-11.699-16.533-22.789-24.709-33.348-24.709-7.069 0-11.225 4.178-12.377 12.366-0.644 1.728-0.644 8.153-0.644 20.519v214.496h-52.625v-230.374c0-20.576 1.762-34.5 4.675-43.319 5.308-14.76 17.018-21.648 34.014-21.648zM269.345 727.39v-158.337h58.542v158.337l70.422 232.61h-59.197l-39.943-153.526-41.558 153.526h-61.602c12.343-36.239 25.183-72.658 37.526-108.931 18.78-54.522 30.502-95.628 35.81-123.679zM476.772 565.056c26.448 0 47.001 9.949 61.58 29.824 11.078 14.579 16.386 37.549 16.386 68.514v102.019c0 31.146-5.296 53.912-16.386 68.627-14.579 19.932-35.121 29.881-61.58 29.881-26.312 0-46.854-9.949-61.467-29.881-11.214-14.715-16.521-37.481-16.521-68.627v-102.019c0-30.965 5.308-53.935 16.521-68.514 14.602-19.875 35.155-29.824 61.467-29.824zM451.578 775.995c0 26.956 8.176 40.394 25.194 40.394s25.172-13.427 25.172-40.394v-122.55c0-26.956-8.153-40.44-25.172-40.44s-25.194 13.484-25.194 40.44v122.55z" />
<glyph unicode="&#xe656;" glyph-name="filter" d="M390.027 476.121c10.746-11.694 16.646-26.97 16.646-42.773v-465.653c0-28.025 33.818-42.247 53.835-22.545l129.898 148.861c17.383 20.86 26.97 31.185 26.97 51.833v287.398c0 15.803 6.005 31.079 16.646 42.774l372.732 404.443c27.918 30.341 6.427 79.54-34.871 79.54h-919.717c-41.298 0-62.895-49.094-34.871-79.54l372.734-404.338z" />
<glyph unicode="&#xe657;" glyph-name="dots-horizontal" d="M768 448c0-70.4 57.6-128 128-128s128 57.6 128 128-57.6 128-128 128-128-57.6-128-128zM640 448c0 70.4-57.6 128-128 128s-128-57.6-128-128 57.6-128 128-128 128 57.6 128 128zM256 448c0 70.4-57.6 128-128 128s-128-57.6-128-128 57.6-128 128-128 128 57.6 128 128z" />
<glyph unicode="&#xe658;" glyph-name="televisions" d="M891.345 444.011c-46.59 0-84.479 37.832-84.479 84.454 0 46.655 37.88 84.446 84.479 84.446 46.672 0 84.446-37.791 84.446-84.446 0-46.623-37.775-84.454-84.446-84.454zM891.345 232.847c-46.59 0-84.479 37.799-84.479 84.479 0 46.655 37.88 84.462 84.479 84.462 46.672 0 84.446-37.799 84.446-84.462 0-46.647-37.775-84.479-84.446-84.479zM767.986 106.186c0-46.655-41.109-91.139-87.821-91.139h-506.816c-46.55 0-80.274 44.484-80.274 91.139v422.312c0 46.615 33.725 91.66 80.274 91.66h506.783c46.704 0 87.854-45.045 87.854-91.66v-422.312zM933.528 689.957h-312.998c-25.69 0-33.204 19.753-16.72 39.491l82.291 100.565c16.468 19.753 31.277 36.335 33.025 35.921 1.033-0.309 2.074-0.033 3.277-0.033 23.356 0 42.239 19.087 42.239 42.475 0 23.267-18.883 42.321-42.239 42.321-23.275 0-42.239-18.9-42.239-42.174 0-2.505 0.301-4.912 0.821-7.254 0.854-3.969-11.206-22.998-27.674-42.735l-104.476-125.344c-16.435-19.753-33.269-35.75-37.547-35.75s-21.046 15.988-37.514 35.766l-104.436 125.287c-16.476 19.778-28.65 38.84-27.813 42.817 0.496 2.358 0.781 4.766 0.781 7.262 0 23.258-18.875 42.199-42.248 42.199-23.258 0-42.239-18.94-42.239-42.199 0-23.38 18.973-42.248 42.239-42.248 1.228 0 2.301 0.22 3.351 0.496 1.797 0.415 16.614-15.216 33.090-34.985l82.226-102.427c16.452-19.753 8.954-39.491-16.736-39.491h-313.071c-46.574 0.024-88.919-30.334-88.919-76.964v-591.237c0-46.712 42.345-76.485 88.919-76.485h844.649c46.663 0 90.432 29.797 90.432 76.485v591.262c-0.016 46.631-43.76 76.981-90.472 76.981z" />
<glyph unicode="&#xe659;" glyph-name="ipad" d="M817.085 960h-610.231c-38.467 0-69.433-31.117-69.433-69.554v-884.922c0-38.316 30.966-69.524 69.433-69.524h610.231c38.347 0 69.464 31.177 69.464 69.524v884.922c0.060 38.437-31.087 69.554-69.464 69.554zM512-37.944c-22.833 0-41.299 18.465-41.299 41.268 0 22.833 18.465 41.329 41.299 41.329 22.773 0 41.299-18.495 41.299-41.329 0-22.803-18.526-41.268-41.299-41.268zM816.272 80.831h-608.544v795.608h608.544v-795.608z" />
<glyph unicode="&#xe65a;" glyph-name="mobile-phone" d="M727.406 960h-430.888c-41.186 0-74.464-33.43-74.464-74.578v-874.882c0-41.11 33.278-74.54 74.464-74.54h430.85c41.186 0 74.54 33.43 74.54 74.54v874.882c0.038 41.148-33.278 74.578-74.502 74.578zM405.634 914.688h212.732c5.387 0 9.704-8.023 9.704-17.995 0-9.934-4.317-17.995-9.704-17.995h-212.732c-5.387 0-9.666 8.061-9.666 17.995 0 9.972 4.279 17.995 9.666 17.995zM512 9.623c-26.248 0-47.605 21.319-47.605 47.605s21.395 47.528 47.605 47.528 47.567-21.281 47.567-47.528c0-26.286-21.395-47.605-47.567-47.605zM746.089 172.687h-468.178v661.462h468.178v-661.462z" />
<glyph unicode="&#xe65b;" glyph-name="watch" horiz-adv-x="724" d="M520.225 934.406c0 21.814-17.668 39.487-39.485 39.487h-251.384c-21.832 0-39.487-17.673-39.487-39.487v-128.579h330.361v128.579h0.002zM189.866-18.942c0-21.797 17.673-39.473 39.476-39.473h251.424c21.797 0 39.471 17.67 39.471 39.473v128.577h-330.366v-128.577zM679.425 538.435h-40.527v141.739c0 50.276-40.907 91.178-91.183 91.178h-385.354c-50.276 0-91.178-40.906-91.178-91.178v-70.46h-3.873c-16.546 0-29.962-13.411-29.962-29.96v-62.175c0-16.546 13.411-29.964 29.962-29.964h3.873v-59.751h-3.873c-16.546 0-29.962-13.412-29.962-29.96v-62.175c0-16.542 13.411-29.956 29.962-29.956h3.873v-70.478c0-50.279 40.906-91.178 91.178-91.178h385.357c50.279 0 91.183 40.898 91.183 91.178v142.258h40.527c21.798 0 39.478 17.67 39.478 39.476v81.935c-0.003 21.797-17.681 39.473-39.481 39.473zM187.273 733.631h337.38c48.499 0 88.179-32.824 88.179-72.936v-405.913c0-40.117-39.679-72.936-88.179-72.936h-337.38c-48.499 0-88.179 32.824-88.179 72.936v405.913c0 40.117 39.679 72.936 88.179 72.936zM216.346 517.385l133.218-104.673 187.14 294.984-196.655-218.861z" />
<glyph unicode="&#xe65c;" glyph-name="headphone" d="M1024 347.278c0 25.843-19.668 46.652-44.236 47.961l0.067 1.309c0.537 7.753 1.108 15.741 1.108 23.729 0 151.066-50.881 280.719-146.77 375.366-91.19 89.747-184.864 139.051-322.068 139.051-137.070 0-230.744-49.304-321.934-139.084-95.956-94.513-146.837-224.266-146.837-375.366 0-5.806 0.403-11.68 0.604-17.52l0.201-7.518c-24.534-1.443-44.135-22.084-44.135-47.928v-321.733c0-26.817 20.775-48.632 46.552-48.632h15.875c9.096-9.935 21.648-15.64 34.872-15.64h47.458c27.018 0 49.102 22.823 49.102 51.049v348.046c0 28.26-22.084 51.083-49.102 51.083h-31.952c2.954 240.477 146.703 453.567 409.063 453.567 234.872 0 385.77-212.284 389.395-453.534h-31.918c-27.018 0-49.035-22.856-49.035-51.083v-348.046c0-28.226 22.017-51.049 49.035-51.049h47.525c13.19 0 25.575 5.571 34.536 15.64h16.11c25.709 0 46.484 21.816 46.484 48.632v321.699z" />
<glyph unicode="&#xe65d;" glyph-name="computer" d="M615.157 148.005h-206.385l-103.211-137.614v-68.843h412.842v68.843zM955.769 954.416h-887.431c-37.718 0-68.339-30.729-68.339-68.699v-630.431c0-38.006 30.621-68.771 68.339-68.771h887.431c37.646 0 68.231 30.765 68.231 68.771v630.431c0 37.97-30.585 68.699-68.231 68.699zM516.593 211.66c-32.602 0-59.080 26.478-59.080 59.044 0 32.602 26.442 59.008 59.080 59.008 32.566 0 59.044-26.406 59.044-59.008s-26.478-59.044-59.044-59.044zM517.206 234.248c-20.318 0-36.673 16.391-36.673 36.673s16.319 36.709 36.673 36.709c20.246 0 36.673-16.427 36.673-36.709s-16.391-36.673-36.673-36.673zM950.87 349.743h-877.668v531.579h877.668v-531.579z" />
<glyph unicode="&#xe65e;" glyph-name="spa" d="M447.171 791.758h-300.917c-53.889 0-97.863-43.866-97.863-97.863v-659.71c0-53.889 43.866-97.864 97.863-97.864h300.917c53.889 0 97.863 43.867 97.863 97.864v659.71c0 53.997-43.866 97.863-97.863 97.863zM102.819 693.896c0 24.035 19.508 43.435 43.435 43.435h300.917c24.035 0 43.435-19.508 43.435-43.435v-131.274h-387.786v131.274zM396.73 916.35c0 24.142-19.508 43.65-43.65 43.65h-112.735c-24.142 0-43.65-19.508-43.65-43.65v-83.528h199.928v83.528h0.107zM784.948 882.831h168.456c12.287 0 22.204 9.916 22.204 22.202v32.765c0 12.287-9.917 22.202-22.204 22.202h-204.24c-59.6 0-107.886-48.392-107.886-107.994v-808.12c0-59.602 48.286-107.886 107.886-107.886h204.132c12.287 0 22.202 9.915 22.202 22.202v32.872c0 12.287-9.915 22.202-22.202 22.202h-168.348c-12.287 0-22.202 9.917-22.202 22.202v19.723c0 12.287 9.915 22.202 22.202 22.202h168.456c12.287 0 22.204 9.917 22.204 22.202v25.977c0 12.285-9.917 22.202-22.204 22.202h-168.456c-12.287 0-22.202 9.915-22.202 22.202v19.724c0 12.285 9.915 22.202 22.202 22.202h168.456c12.287 0 22.204 9.915 22.204 22.202v25.975c0 12.287-9.917 22.202-22.204 22.202h-168.456c-12.287 0-22.202 9.917-22.202 22.202v19.72c0 12.287 9.915 22.202 22.202 22.202h168.456c12.287 0 22.204 9.917 22.204 22.202v25.975c0 12.285-9.917 22.202-22.204 22.202h-168.456c-12.287 0-22.202 9.915-22.202 22.202v19.723c0 12.286 9.915 22.202 22.202 22.202h168.456c12.287 0 22.204 9.916 22.204 22.203v25.975c0 12.287-9.917 22.202-22.204 22.202h-168.456c-12.287 0-22.202 9.916-22.202 22.203v19.723c0 12.287 9.915 22.202 22.202 22.202h168.456c12.287 0 22.204 9.916 22.204 22.202v25.972c0 12.287-9.917 22.202-22.204 22.202h-168.456c-12.287 0-22.202 9.916-22.202 22.202v19.723c0 12.287 9.915 22.202 22.202 22.202h168.456c12.287 0 22.204 9.916 22.204 22.202v25.975c0 12.287-9.917 22.202-22.204 22.202h-168.456c-12.287 0-22.202 9.916-22.202 22.202v19.723c0 10.67 9.915 20.586 22.202 20.586z" />
<glyph unicode="&#xe65f;" glyph-name="iwatch" horiz-adv-x="724" d="M478.936 983.902c0 23.244-18.826 42.076-42.074 42.076h-267.864c-23.263 0-42.076-18.831-42.076-42.076v-137.009h352.019v137.009h0.002zM126.919-31.95c0-23.226 18.831-42.060 42.063-42.060h267.906c23.226 0 42.058 18.828 42.058 42.060v137.006h-352.024v-137.006zM648.573 561.966h-43.183v151.031c0 53.572-43.589 97.155-97.16 97.155h-410.617c-53.572 0-97.155-43.588-97.155-97.155v-75.079h-4.127c-17.631 0-31.927-14.291-31.927-31.924v-66.251c0-17.631 14.291-31.929 31.927-31.929h4.127v-63.668h-4.127c-17.631 0-31.927-14.292-31.927-31.924v-66.251c0-17.627 14.291-31.919 31.927-31.919h4.127v-75.098c0-53.575 43.588-97.155 97.155-97.155h410.62c53.575 0 97.16 43.579 97.16 97.155v151.584h43.183c23.227 0 42.066 18.828 42.066 42.063v87.306c-0.003 23.226-18.84 42.060-42.070 42.060zM124.163 769.957h359.497c51.678 0 93.959-34.976 93.959-77.718v-432.523c0-42.747-42.28-77.718-93.959-77.718h-359.497c-51.678 0-93.959 34.976-93.959 77.718v432.523c0 42.747 42.28 77.718 93.959 77.718zM407.937 464.303c-0.449 45.018 36.716 66.609 38.374 67.684-20.878 30.556-53.41 34.741-64.998 35.224-27.68 2.804-54.015-16.298-68.065-16.298-14.016 0-35.693 15.882-58.651 15.465-30.171-0.449-57.991-17.548-73.533-44.566-31.347-54.397-8.029-134.987 22.525-179.103 14.932-21.595 32.736-45.85 56.104-44.981 22.51 0.896 31.020 14.564 58.236 14.564s34.867-14.564 58.684-14.117c24.22 0.45 39.566 22.007 54.395 43.672 17.145 25.050 24.205 49.31 24.625 50.553-0.536 0.245-47.233 18.135-47.701 71.908zM363.17 596.419c12.405 15.050 20.78 35.932 18.497 56.763-17.875-0.728-39.529-11.9-52.353-26.921-11.509-13.324-21.575-34.583-18.876-55.003 19.949-1.554 40.317 10.142 52.735 25.156z" />
<glyph unicode="&#xe660;" glyph-name="tablets" d="M999.379 687.312l-248.068 248.062c-32.834 32.834-86.065 32.834-118.899 0l-607.787-607.787c-32.834-32.834-32.834-86.065 0-118.899l248.068-248.068c32.834-32.834 86.065-32.834 118.899 0l607.792 607.787c32.824 32.839 32.824 86.070-0.005 118.904zM240.437 225.924c-29.505-29.505-77.34-29.505-106.839 0-29.505 29.505-29.505 77.34 0 106.844s77.34 29.505 106.839 0c29.505-29.505 29.505-77.34 0-106.844zM396.768 69.593c-29.505-29.505-77.34-29.505-106.844 0s-29.505 77.34 0 106.839c29.505 29.505 77.34 29.505 106.844 0 29.5-29.5 29.5-77.334 0-106.839zM404.982 390.474c-29.505-29.505-77.34-29.505-106.844 0s-29.505 77.34 0 106.839c29.505 29.505 77.34 29.505 106.844 0s29.505-77.34 0-106.839zM561.313 234.137c-29.505-29.505-77.34-29.505-106.844 0s-29.505 77.34 0 106.844c29.505 29.505 77.34 29.505 106.844 0s29.505-77.34 0-106.844zM569.526 555.018c-29.505-29.505-77.34-29.505-106.839 0-29.505 29.505-29.505 77.34 0 106.844s77.34 29.505 106.839 0c29.505-29.505 29.505-77.34 0-106.844zM725.863 398.687c-29.505-29.505-77.34-29.505-106.844 0s-29.505 77.34 0 106.839c29.505 29.505 77.34 29.505 106.844 0 29.5-29.5 29.5-77.334 0-106.839zM734.076 719.563c-29.505-29.505-77.34-29.505-106.844 0s-29.505 77.34 0 106.844c29.505 29.505 77.34 29.505 106.844 0s29.505-77.34 0-106.844zM890.407 563.232c-29.505-29.505-77.34-29.505-106.844 0s-29.505 77.34 0 106.844c29.505 29.505 77.34 29.505 106.844 0s29.505-77.34 0-106.844z" />
</font>
</defs>
</svg>
